Tags
Language
Tags

Jane Constance - Un jour j'ai rêvé (2018) [Official Digital Download 24/96]

Posted By: pyatak
Jane Constance - Un jour j'ai rêvé (2018) [Official Digital Download 24/96]

Jane Constance - Un jour j'ai rêvé (2018) [Official Digital Download 24/96]
FLAC (tracks) 24-bit/96 kHz | Front Cover | Time - 45:21 minutes | 926 MB
Pop, Chanson | Label: Universal Music Division Mercury Records, Official Digital Download

2ème album 'Un jour j’ai rêvé', recueil de reprises de grands standards pour la paix et l’amour, parmi lesquels les reprises de 'What a wonderful world' (Louis Armstrong), 'One love' (Bob Marley), ou encore 'Quand on a que l’amour' (Jacques Brel). Des reprises à son image : solaires, touchantes, et portées par sa voix d’ange. Née à Maurice en 2000, Jane Constance, qui est aveugle de naissance, a commencé à chanter dès l’âge de cinq ans et apprendre le piano dès l’âge de sept ans. Elle a poursuivi l’étude du piano et du chant à la Royal School of Music de Londres. Lauréate 2015 de l’émission de télévision française The Voice Kids, Jane Constance a signé en 2016, A travers tes yeux, album disque d'or. En septembre 2017, Jane Constance est nommée Artiste de l’UNESCO pour la paix pour le monde en reconnaissance de sa mobilisation en faveur des droits des personnes souffrant de handicaps, de ses efforts pour sensibiliser le public à la nécessité d’intégrer et d’autonomiser les personnes handicapées. C’est dans ce sens qu’elle publie maintenant son 2ème album.

TRACKLIST

1 Un jour j'ai rêvé
2 What A Wonderful World
3 Earth Song
4 One Love
5 A Change Is Gonna Come
6 We Are The World
7 We As One
8 Love
9 Quand on n'a que l'amour
10 Greatest Love Of All
11 Nella Fantasia
12 Ebony And Ivory
13 Once I Had A Dream

foobar2000 1.3.16 / Dynamic Range Meter 1.1.1
log date: 2018-04-07 17:29:52

––––––––––––––––––––––––––––––––––––––––
Analyzed: Jane Constance / Un jour j'ai rêvé
––––––––––––––––––––––––––––––––––––––––

DR Peak RMS Duration Track
––––––––––––––––––––––––––––––––––––––––
DR6 0.00 dB -8.34 dB 3:01 01-Un jour j'ai rêvé
DR9 0.00 dB -12.11 dB 2:31 02-What A Wonderful World
DR7 0.00 dB -8.98 dB 3:58 03-Earth Song
DR7 0.00 dB -8.75 dB 2:48 04-One Love
DR9 0.00 dB -10.75 dB 3:20 05-A Change Is Gonna Come
DR7 0.00 dB -8.78 dB 4:02 06-We Are The World
DR7 0.00 dB -8.61 dB 3:26 07-We As One
DR9 0.00 dB -11.87 dB 2:53 08-Love
DR6 0.00 dB -8.57 dB 3:20 09-Quand on n'a que l'amour
DR7 0.00 dB -8.78 dB 4:37 10-Greatest Love Of All
DR9 0.00 dB -10.22 dB 4:27 11-Nella Fantasia
DR7 0.00 dB -8.16 dB 3:59 12-Ebony And Ivory
DR6 0.00 dB -8.71 dB 3:04 13-Once I Had A Dream
––––––––––––––––––––––––––––––––––––––––

Number of tracks: 13
Official DR value: DR7

Samplerate: 96000 Hz
Channels: 2
Bits per sample: 24
Bitrate: 2856 kbps
Codec: FLAC
================================================================================



Thanks to the Original customer.