Tags
Language
Tags

Jane Harvey - Leave It To Jane! (1959/2021) [Official Digital Download 24/96]

Posted By: pyatak
Jane Harvey - Leave It To Jane! (1959/2021) [Official Digital Download 24/96]

Jane Harvey - Leave It To Jane! 1959/2021) [Official Digital Download 24/96]
FLAC (tracks) 24-bit/96 kHz | Front Cover | Time - 32:40 minutes | 600 MB
Jazz | Label: RevOla, Official Digital Download

Anne Phillips, vocals, accompanied by Orchestra Arranged and Conducted by Kermit Leslie, featuring Doc Severinsen, trumpet; Walt Levinsky, alto sax; Bernie Leighton, piano; Barry Galbraith or Mundell Lowe, guitar; George Duvivier or Milt Hinton, bass; Osie Johnson, drums; plus string section.
Recorded in New York City, 1959

TRACKLIST

1. Jane Harvey - Sent For You Yesterday And Here You Come Today (Remastered)
2. Jane Harvey - Misty (Remastered)
3. Jane Harvey - Everything But You (Remastered)
4. Jane Harvey - Impossible (Remastered)
5. Jane Harvey - A Lover In The House (Remastered)
6. Jane Harvey - Telephonez-Moi (Remastered)
7. Jane Harvey - Witchcraft (Remastered)
8. Jane Harvey - Trav`lin` Light (Remastered)
9. Jane Harvey - The Man That Got Away (Remastered)
10. Jane Harvey - Blue Again (Remastered)
11. Jane Harvey - Can`t Get Out Of This Mood (Remastered)

foobar2000 1.6.2 / Dynamic Range Meter 1.1.1
log date: 2021-08-22 22:52:19

––––––––––––––––––––––––––––––––––––––––
Analyzed: Jane Harvey / Leave It To Jane!
––––––––––––––––––––––––––––––––––––––––

DR Peak RMS Duration Track
––––––––––––––––––––––––––––––––––––––––
DR10 0.00 dB -13.48 dB 2:53 01-Sent For You Yesterday And Here You Come Today (Remastered)
DR9 0.00 dB -13.56 dB 3:23 02-Misty (Remastered)
DR10 0.00 dB -12.41 dB 2:51 03-Everything But You (Remastered)
DR9 -0.03 dB -13.44 dB 2:38 04-Impossible (Remastered)
DR10 -0.16 dB -16.24 dB 3:24 05-A Lover In The House (Remastered)
DR10 0.00 dB -12.86 dB 2:26 06-Telephonez-Moi (Remastered)
DR10 -0.47 dB -14.91 dB 2:24 07-Witchcraft (Remastered)
DR9 -1.14 dB -17.36 dB 3:06 08-Trav`lin` Light (Remastered)
DR8 -0.91 dB -14.75 dB 3:05 09-The Man That Got Away (Remastered)
DR11 0.00 dB -13.83 dB 2:59 10-Blue Again (Remastered)
DR10 -0.46 dB -15.59 dB 3:32 11-Can`t Get Out Of This Mood (Remastered)
––––––––––––––––––––––––––––––––––––––––

Number of tracks: 11
Official DR value: DR10

Samplerate: 96000 Hz
Channels: 2
Bits per sample: 24
Bitrate: 2490 kbps
Codec: FLAC
================================================================================



Thanks to the Original customer.