Jason Becker - Triumphant Hearts (2018) [Official Digital Download]

Posted By: pyatak
Jason Becker - Triumphant Hearts (2018) [Official Digital Download]

Jason Becker - Triumphant Hearts (2018) [Official Digital Download]
FLAC (tracks) 24-bit/44.1 kHz | Front Cover | Time - 01:17:56 minutes | 762 MB
Progressive Rock | Label: Music Theories, Official Digital Download

Jason Becker’s story is one of brilliance, talent, determination, adversity, and triumph. A child prodigy on guitar, Jason rose to prominence as a teenager when he was one half of the legendary shred duo Cacophony (with his great friend Marty Friedman). After wowing audiences all over the word with his amazing guitar chops and deep compositions, Jason auditioned for—and got—the gig with David Lee Roth’s band, following in the huge footsteps of Eddie Van Halen and Steve Vai. He wrote and recorded the DLR album, A Little Ain’t Enough, and was poised to take over the rock guitar world until a nagging pain in his leg was diagnosed as ALS. Jason did indeed lose the ability to play guitar, walk, talk, and breathe on his own, but he never lost his will to live or his desire to create music. In fact, he’s busier and more prolific than ever, as evidenced by his latest release, Triumphant Hearts. The album’s 13 tracks showcase Jason’s gift for melody and his deep knowledge of classical composition and orchestral arrangement. Many of the guitar parts are performed by a who’s-who of 6-string gods including Joe Satriani, Steve Vai, Neal Schon, Steve Morse, Paul Gilbert, Joe Bonamassa, and many others. These amazing musicians help Jason realize his vision on the best material of his career. Speaking on the creation of the record, Jason stated, “when I wrote 'Triumphant Hearts', it made me feel triumphant.” He continues, “Some people feel sorry for me, and I understand that. but, I really feel lucky though. I am grateful for the fact that I am surrounded by loving people, and I can still make music.”

TRACKLIST

1. Triumphant Heart (feat. Marty Friedman, Glauco Bertagnin & Hiyori Okuda)
2. Hold On To Love (feat. Codany Holiday)
3. Fantasy Weaver (feat. Jake Shimabukuro)
4. Once Upon A Melody
5. We Are One (feat. Steve Knight)
6. Magic Woman (feat. Uli Jon Roth & Chris Broderick)
7. Blowin' in the Wind - By Gary Rosenberg & Jason Becker
8. River of Longing (feat. Joe Satriani, Aleks Sever, Guthrie Govan, Steve Morse)
9. Valley of Fire (feat. Michael Lee Firkins, Steve Vai, Joe Bonamassa, Paul Gilbert, Neal Schon, Matti - By Jason Becker & The Magnificent 13
10. River of Longing (feat. Trevor Rabin)
11. Taking Me Back
12. Tell Me No Lies
13. Hold On To Love (feat. Codany Holiday) [Chuck Zwicky Remix]
14. You Do It


foobar2000 1.3.16 / Dynamic Range Meter 1.1.1
log date: 2018-12-07 02:44:19

––––––––––––––––––––––––––––––––––––––––
Analyzed: Jason Becker & Gary Rosenberg / Triumphant Hearts (1)
Jason Becker / Triumphant Hearts (2-13)
––––––––––––––––––––––––––––––––––––––––

DR Peak RMS Duration Track
––––––––––––––––––––––––––––––––––––––––
DR11 -0.42 dB -14.25 dB 4:58 07-Blowin' in the Wind
DR9 -0.82 dB -12.69 dB 4:08 01-Triumphant Heart (feat. Marty Friedman, Glauco Bertagnin & Hiyori Okuda)
DR6 -0.04 dB -8.33 dB 7:26 02-Hold On To Love (feat. Codany Holiday)
DR9 -0.68 dB -13.20 dB 5:08 03-Fantasy Weaver (feat. Jake Shimabukuro)
DR9 -0.57 dB -14.23 dB 6:45 04-Once Upon A Melody
DR8 0.00 dB -9.16 dB 5:51 05-We Are One (feat. Steve Knight)
DR7 -0.70 dB -10.99 dB 7:07 06-Magic Woman (feat. Uli Jon Roth & Chris Broderick)
DR8 0.00 dB -9.40 dB 5:50 08-River of Longing (feat. Joe Satriani, Aleks Sever, Guthrie Govan, Steve Morse)
DR8 0.00 dB -10.56 dB 5:53 10-River of Longing (feat. Trevor Rabin)
DR7 0.00 dB -7.98 dB 4:24 11-Taking Me Back
DR7 -0.05 dB -8.62 dB 4:20 12-Tell Me No Lies
DR9 -0.80 dB -11.52 dB 5:56 13-Hold On To Love (feat. Codany Holiday) [Chuck Zwicky Remix]
DR13 -6.79 dB -26.99 dB 0:55 14-You Do It
––––––––––––––––––––––––––––––––––––––––

Number of tracks: 13
Official DR value: DR8

Samplerate: 44100 Hz
Channels: 2
Bits per sample: 24
Bitrate: 1315 kbps
Codec: FLAC
================================================================================



Thanks to the Original customer.