Tags
Language
Tags

Jean-Claude Pascal - Prokofiev: Pierre et le loup, Op. 67 (1959/2019) [Official Digital Download 24/96]

Posted By: SERTiL
Jean-Claude Pascal - Prokofiev: Pierre et le loup, Op. 67 (1959/2019) [Official Digital Download 24/96]

Jean-Claude Pascal - Prokofiev: Pierre et le loup, Op. 67 (1959/2019)
FLAC (tracks) 24-bit/96 kHz | Time - 29:12 minutes | 294 MB
Studio Master, Official Digital Download | Artwork: Front Cover

Peter and the Wolf Op. 67, a 'symphonic fairy tale for children', is a musical composition written by Sergei Prokofiev in 1936. The narrator tells a children's story, while the orchestra illustrates it. It is Prokofiev's most frequently performed work, and one of the most frequently performed works in the entire classical repertoire. It has been recorded many times.

This landmark performance from Herbert von Karajan as the principal conductor and founder of the Philharmonia Orchestra is a modern reference for the seminal work.

Throughout his career Karajan was a prolific recording artist, making many of his best records for EMI Classics. Being interested in the technology of recording he continued to make both audio and video recordings right up to the time of his death, his name becoming synonymous with the best in mainstream classical music for millions of people around the world. He died on 16 July 1989 aged 81 at his home in Anif, Austria.

Tracklist:
1. Pierre et le loup, Op. 67: Présentation des personnages avec leurs motifs musicaux 02:25
2. Pierre et le loup, Op. 67: Un beau matin 00:59
3. Pierre et le loup, Op. 67: Sur une branche d'arbre 01:34
4. Pierre et le loup, Op. 67: Un canard arriva bientôt 02:27
5. Pierre et le loup, Op. 67: Le chat 01:57
6. Pierre et le loup, Op. 67: C'est alors que le grand-père apparut 02:24
7. Pierre et le loup, Op. 67: À peine. Pierre était-il rentré… 02:59
8. Pierre et le loup, Op. 67: Et maintenant, voici pù en étaient les choses 01:52
9. Pierre et le loup, Op. 67: Pendant ce temps,. Pierre, derrière la porte verrouillée du jardin… 02:46
10. Pierre et le loup, Op. 67: Durant ce manège,. Pierre fit à la corde un nœud coulant 01:47
11. Pierre et le loup, Op. 67: C'est alors que des chasseurs sortirent de la forêt 02:43
12. Pierre et le loup, Op. 67: Maintenant, imaginez la marche triomphale 05:19

foobar2000 1.3.7 / Dynamic Range Meter 1.1.1
log date: 2019-07-15 19:30:46

––––––––––––––––––––––––––––––––––––––––
Analyzed: Philharmonia Orchestra / Prokofiev: Pierre et le loup, Op. 67
––––––––––––––––––––––––––––––––––––––––

DR Peak RMS Duration Track
––––––––––––––––––––––––––––––––––––––––
DR14 0.00 dB -23.67 dB 2:25 01-Pierre et le loup, Op. 67: Présentation des personnages avec leurs motifs musicaux
DR13 -6.82 dB -26.00 dB 1:00 02-Pierre et le loup, Op. 67: Un beau matin
DR16 -10.44 dB -29.73 dB 1:34 03-Pierre et le loup, Op. 67: Sur une branche d'arbre
DR13 -10.27 dB -27.19 dB 2:28 04-Pierre et le loup, Op. 67: Un canard arriva bientôt
DR18 -6.77 dB -29.27 dB 1:58 05-Pierre et le loup, Op. 67: Le chat
DR12 -5.92 dB -23.84 dB 2:25 06-Pierre et le loup, Op. 67: C'est alors que le grand-père apparut
DR12 -5.50 dB -23.27 dB 2:59 07-Pierre et le loup, Op. 67: À peine Pierre était-il rentré…
DR14 -5.87 dB -26.05 dB 1:52 08-Pierre et le loup, Op. 67: Et maintenant, voici pù en étaient les choses
DR16 -0.68 dB -22.81 dB 2:47 09-Pierre et le loup, Op. 67: Pendant ce temps, Pierre, derrière la porte verrouillée du jardin…
DR13 -1.61 dB -20.04 dB 1:48 10-Pierre et le loup, Op. 67: Durant ce manège, Pierre fit à la corde un nœud coulant
DR15 -0.91 dB -22.41 dB 2:44 11-Pierre et le loup, Op. 67: C'est alors que des chasseurs sortirent de la forêt
DR12 -2.12 dB -20.69 dB 5:19 12-Pierre et le loup, Op. 67: Maintenant, imaginez la marche triomphale
––––––––––––––––––––––––––––––––––––––––

Number of tracks: 12
Official DR value: DR14

Samplerate: 96000 Hz
Channels: 2
Bits per sample: 24
Bitrate: 1413 kbps
Codec: FLAC
================================================================================


Thanks to the Original customer.