Jeremiah Fraites - Piano Piano (2021) [Official Digital Download]

Posted By: pyatak
Jeremiah Fraites - Piano Piano (2021) [Official Digital Download]

Jeremiah Fraites - Piano Piano (2021) [Official Digital Download]
FLAC (tracks) 24-bit/44.1 kHz | Front Cover | Time - 39:02 minutes | 350 MB
Classical | Label: Dualtone Music Group, Official Digital Download

2021 release. The Lumineers co-founder, songwriter, and multi-instrumentalist Jeremiah Fraites' solo debut album Piano Piano. A collection of songs that's been in the works for the better part of a decade, Piano Piano features gorgeous, intimate piano-centric instrumental songs capturing Fraites' reflective moments from his Denver home.

TRACKLIST

1. Jeremiah Fraites - Departure
2. Jeremiah Fraites - Chilly
3. Jeremiah Fraites - Tokyo
4. Jeremiah Fraites - Maggie
5. Jeremiah Fraites - Nearsighted
6. Jeremiah Fraites - Dreams
7. Jeremiah Fraites - Possessed
8. Jeremiah Fraites - An Air That Kills
9. Jeremiah Fraites - Simplest of Matters
10. Jeremiah Fraites - Pyromaniac
11. Jeremiah Fraites - Arrival

foobar2000 1.6.1 / Dynamic Range Meter 1.1.1
log date: 2021-01-21 18:33:32

––––––––––––––––––––––––––––––––––––––––
Analyzed: Jeremiah Fraites / Piano Piano
––––––––––––––––––––––––––––––––––––––––

DR Peak RMS Duration Track
––––––––––––––––––––––––––––––––––––––––
DR10 -1.99 dB -15.27 dB 0:36 01-Departure
DR10 -0.14 dB -13.71 dB 6:06 02-Chilly
DR8 -0.96 dB -12.37 dB 2:28 03-Tokyo
DR8 -0.25 dB -12.58 dB 4:22 04-Maggie
DR8 -2.53 dB -13.40 dB 3:15 05-Nearsighted
DR9 -0.17 dB -14.56 dB 3:59 06-Dreams
DR9 -0.66 dB -13.54 dB 4:55 07-Possessed
DR10 -0.54 dB -13.74 dB 3:26 08-An Air That Kills
DR10 -0.97 dB -15.13 dB 1:22 09-Simplest of Matters
DR10 -1.66 dB -14.92 dB 3:59 10-Pyromaniac
DR11 -1.00 dB -15.70 dB 4:34 11-Arrival
––––––––––––––––––––––––––––––––––––––––

Number of tracks: 11
Official DR value: DR9

Samplerate: 44100 Hz
Channels: 2
Bits per sample: 24
Bitrate: 1202 kbps
Codec: FLAC
================================================================================



Thanks to the Original customer.