Tags
Language
Tags

Jerusalem Quartet - Debussy & Ravel: String Quartets (2018) [Official Digital Download 24/96]

Posted By: SERTiL
Jerusalem Quartet - Debussy & Ravel: String Quartets (2018) [Official Digital Download 24/96]

Jerusalem Quartet - Debussy & Ravel: String Quartets (2018)
FLAC (tracks) 24-bit/96 kHz | Time - 53:24 minutes | 957 MB
Studio Master, Official Digital Download | Artwork: Digital Booklet

A century after his death on 25 March 1918, many harmonia mundi artists are eager to pay tribute to Claude Debussy, the magician of melody and timbre, the great ‘colourist’ and father of modern music. The musicians of the Jerusalem Quartet offer a new reading of his only String Quartet, in the logical coupling with its Ravelian counterpart: in some respects, the two works might seem like twins – and yet what differences there are between them!

Tracklist:
1. String Quartet In G Minor Op.10: I. Anime et tres decide
2. String Quartet In G Minor Op.10: II. Assez vif et bien rythme
3. String Quartet In G Minor Op.10: III. Andantino, doucement expressif
4. String Quartet In G Minor Op.10: IV. Tres modere - Tres mouvemente et avec passion
5. String Quartet In F Major: I. Allegro moderato
6. String Quartet In F Major: II. Assez vif - Tres rythme
7. String Quartet In F Major: III. Tres lent
8. String Quartet In F Major: IV. Vif et agite

Composers:
Debussy, Claude Achille (1862-1918)
Ravel, Maurice (1875-1937)

foobar2000 1.3.7 / Dynamic Range Meter 1.1.1
log date: 2018-05-19 15:37:29

––––––––––––––––––––––––––––––––––––––––
Analyzed: Jerusalem Quartet/Claude Debussy/Jerusalem Quartet / Debussy & Ravel - String Quartets (1-4)
Jerusalem Quartet/Maurice Ravel/Jerusalem Quartet / Debussy & Ravel - String Quartets (5-8)
––––––––––––––––––––––––––––––––––––––––

DR Peak RMS Duration Track
––––––––––––––––––––––––––––––––––––––––
DR14 -0.50 dB -19.55 dB 6:36 01-String Quartet in G Minor, Op. 10: I. Animé et très décidé
DR15 -1.07 dB -22.26 dB 3:56 02-String Quartet in G Minor, Op. 10: II. Assez vif et bien rythmé
DR16 -3.64 dB -26.42 dB 7:48 03-String Quartet in G Minor, Op. 10: III. Andantino, doucement expressif
DR14 -0.50 dB -19.54 dB 7:09 04-String Quartet in G Minor, Op. 10: IV. Très modéré
DR16 -0.50 dB -23.01 dB 8:19 05-Quatuor en Fa Majeur, M. 35: I. Allegro moderato
DR17 -0.50 dB -23.49 dB 5:58 06-Quatuor en Fa Majeur, M. 35: II. Assez vif, très rythmé
DR16 -2.65 dB -25.91 dB 8:08 07-Quatuor en Fa Majeur, M. 35: III. Très lent
DR14 -0.50 dB -19.64 dB 5:34 08-Quatuor en Fa Majeur, M. 35: IV. Vif et agité
––––––––––––––––––––––––––––––––––––––––

Number of tracks: 8
Official DR value: DR15

Samplerate: 96000 Hz
Channels: 2
Bits per sample: 24
Bitrate: 2611 kbps
Codec: FLAC
================================================================================


Thanks to the Original customer.