Tags
Language
Tags

Jerusalem Quartet - Béla Bartók - String Quartets Nos. 1, 3 & 5 (2020) [Official Digital Download 24/96]

Posted By: pyatak
Jerusalem Quartet - Béla Bartók - String Quartets Nos. 1, 3 & 5 (2020) [Official Digital Download 24/96]

Jerusalem Quartet - Béla Bartók- String Quartets Nos. 1, 3 & 5 (2020) [Official Digital Download 24/96]
FLAC (tracks) 24-bit/96 kHz | Front Cover | Time - 01:17:24 minutes | 1,34 GB
Classical | Label: Harmonia Mundi, Official Digital Download

From the opening funeral dirge of the First Quartet to the incandescent frenzy that concludes the Fifth, this disc offers a genuine panorama of the Bartókian universe. A world unto itself, constantly stamped with the heritage of Hungarian folklore so dear to the composer: two years after a first volume devoted to the even-numbered works (nos. 2, 4 and 6), the musicians of the Jerusalem Quartet expertly complete their recording of a key cycle of modern chamber music, a musical saga drawn on the scale of a lifetime!


TRACKLIST

1. Jerusalem Quartet - String Quartet No. 1, Op. 7, Sz. 40, BB 52: I. Lento
2. Jerusalem Quartet - String Quartet No. 1, Op. 7, Sz. 40, BB 52: II. Allegretto
3. Jerusalem Quartet - String Quartet No. 1, Op. 7, Sz. 40, BB 52: III. Allegro vivace
4. Jerusalem Quartet - String Quartet No. 3, Sz. 85, BB 93: I. Prima parte. Moderato
5. Jerusalem Quartet - String Quartet No. 3, Sz. 85, BB 93: II. Seconda parte. Allegro
6. Jerusalem Quartet - String Quartet No. 3, Sz. 85, BB 93: III. Ricapitulazione della prima parte. Moderato
7. Jerusalem Quartet - String Quartet No. 3, Sz. 85, BB 93: IV. Coda. Allegro molto
8. Jerusalem Quartet - String Quartet No. 5, Sz. 102, BB 110: I. Allegro
9. Jerusalem Quartet - String Quartet No. 5, Sz. 102, BB 110: II. Adagio molto
10. Jerusalem Quartet - String Quartet No. 5, Sz. 102, BB 110: III. Scherzo. Alla bulgarese
11. Jerusalem Quartet - String Quartet No. 5, Sz. 102, BB 110: IV. Andante
12. Jerusalem Quartet - String Quartet No. 5, Sz. 102, BB 110: V. Finale. Allegro vivace - Presto

foobar2000 1.6.2 / Dynamic Range Meter 1.1.1
log date: 2020-11-28 17:31:36

––––––––––––––––––––––––––––––––––––––––
Analyzed: Jerusalem Quartet / Béla Bartók: String Quartets Nos. 1, 3 & 5
––––––––––––––––––––––––––––––––––––––––

DR Peak RMS Duration Track
––––––––––––––––––––––––––––––––––––––––
DR13 -6.79 dB -26.48 dB 8:40 01-String Quartet No. 1, Op. 7, Sz. 40, BB 52: I. Lento
DR16 -3.09 dB -25.03 dB 10:24 02-String Quartet No. 1, Op. 7, Sz. 40, BB 52: II. Allegretto
DR14 -3.15 dB -23.31 dB 10:48 03-String Quartet No. 1, Op. 7, Sz. 40, BB 52: III. Allegro vivace
DR15 -1.83 dB -23.02 dB 4:35 04-String Quartet No. 3, Sz. 85, BB 93: I. Prima parte. Moderato
DR14 -2.78 dB -21.57 dB 5:49 05-String Quartet No. 3, Sz. 85, BB 93: II. Seconda parte. Allegro
DR16 -2.68 dB -27.18 dB 3:03 06-String Quartet No. 3, Sz. 85, BB 93: III. Ricapitulazione della prima parte. Moderato
DR15 -2.28 dB -21.38 dB 2:08 07-String Quartet No. 3, Sz. 85, BB 93: IV. Coda. Allegro molto
DR15 -1.00 dB -21.27 dB 7:59 08-String Quartet No. 5, Sz. 102, BB 110: I. Allegro
DR15 -9.76 dB -32.46 dB 5:55 09-String Quartet No. 5, Sz. 102, BB 110: II. Adagio molto
DR14 -5.33 dB -24.42 dB 5:22 10-String Quartet No. 5, Sz. 102, BB 110: III. Scherzo. Alla bulgarese
DR14 -4.15 dB -26.97 dB 5:13 11-String Quartet No. 5, Sz. 102, BB 110: IV. Andante
DR16 -1.00 dB -23.13 dB 7:34 12-String Quartet No. 5, Sz. 102, BB 110: V. Finale. Allegro vivace - Presto
––––––––––––––––––––––––––––––––––––––––

Number of tracks: 12
Official DR value: DR15

Samplerate: 96000 Hz
Channels: 2
Bits per sample: 24
Bitrate: 2545 kbps
Codec: FLAC
================================================================================



Thanks to the Original customer.