Jessie Ware - What's Your Pleasure (The Platinum Pleasure Edition) (2020/2021) [Official Digital Download]

Posted By: pyatak
Jessie Ware - What's Your Pleasure (The Platinum Pleasure Edition) (2020/2021) [Official Digital Download]

Jessie Ware - What's Your Pleasure (The Platinum Pleasure Edition) (2020/2021) [Official Digital Download]
FLAC (tracks) 24-bit/48 kHz | Front Cover | Time - 86:45 minutes | 1,04 GB
Pop | Label: EMI, Official Digital Download

2021 has been an incredible year so far for Jessie Ware. ‘What’s Your Pleasure?’ re-entered the Top 10 following a brilliant Graham Norton performance of ‘Remember Where You Are’ which has proved itself to be one of Jessie’s most connective singles to date. In addition, Jessie has two BRITs nominations, one for Female Solo artist and one for Album Of The Year – the category with a historic four women up for the award. On 28th April Jessie returns with a brand new single ‘Please’ taken from the upcoming deluxe release of ‘What’s Your Pleasure?’ officially titled as ‘What’s Your Pleasure? The Platinum Pleasure Edition’. Released on 11th June, the album features 6 brand new songs and more.

TRACKLIST

1. Jessie Ware - Spotlight
2. Jessie Ware - What’s Your Pleasure?
3. Jessie Ware - Ooh La La
4. Jessie Ware - Soul Control
5. Jessie Ware - Save A Kiss
6. Jessie Ware - Adore You
7. Jessie Ware - In Your Eyes
8. Jessie Ware - Step Into My Life
9. Jessie Ware - Read My Lips
10. Jessie Ware - Mirage (Don’t Stop)
11. Jessie Ware - The Kill
12. Jessie Ware - Remember Where You Are
13. Jessie Ware - Please
14. Jessie Ware - Impossible
15. Jessie Ware - Eyes Closed
16. Jessie Ware - Overtime
17. Jessie Ware - Hot N Heavy
18. Jessie Ware - Pale Blue Light
19. Jessie Ware - 0208
20. Jessie Ware - Adore You (Endless Remix)

foobar2000 1.6.2 / Dynamic Range Meter 1.1.1
log date: 2021-06-10 23:40:46

––––––––––––––––––––––––––––––––––––––––
Analyzed: Jessie Ware / What's Your Pleasure? (The Platinum Pleasure Edition)
––––––––––––––––––––––––––––––––––––––––

DR Peak RMS Duration Track
––––––––––––––––––––––––––––––––––––––––
DR6 -0.20 dB -7.58 dB 5:32 01-Spotlight
DR7 -0.20 dB -7.75 dB 4:38 02-What’s Your Pleasure?
DR7 -0.20 dB -7.84 dB 3:48 03-Ooh La La
DR8 -0.20 dB -9.29 dB 3:59 04-Soul Control
DR7 -0.20 dB -8.63 dB 4:02 05-Save A Kiss
DR7 -0.20 dB -8.77 dB 3:46 06-Adore You
DR7 -0.20 dB -8.21 dB 4:58 07-In Your Eyes
DR7 -0.20 dB -8.55 dB 3:37 08-Step Into My Life
DR8 -0.20 dB -9.38 dB 4:04 09-Read My Lips
DR7 -0.21 dB -7.87 dB 4:47 10-Mirage (Don’t Stop)
DR6 -0.20 dB -8.14 dB 4:38 11-The Kill
DR7 -0.20 dB -8.57 dB 5:35 12-Remember Where You Are
DR7 -0.20 dB -8.01 dB 4:32 13-Please
DR7 -0.20 dB -8.28 dB 3:42 14-Impossible
DR7 -0.20 dB -8.11 dB 4:26 15-Eyes Closed
DR7 -0.20 dB -8.66 dB 4:39 16-Overtime
DR8 -0.20 dB -8.78 dB 3:35 17-Hot N Heavy
DR8 -0.20 dB -10.35 dB 4:44 18-Pale Blue Light
DR9 -0.20 dB -11.78 dB 4:03 19-0208
DR8 -1.50 dB -11.37 dB 3:45 20-Adore You (Endless Remix)
––––––––––––––––––––––––––––––––––––––––

Number of tracks: 20
Official DR value: DR7

Samplerate: 48000 Hz
Channels: 2
Bits per sample: 24
Bitrate: 1518 kbps
Codec: FLAC
================================================================================



Thanks to the Original customer.