Please register here if you want to download anything!

If domain in your address bar is different from the list below
PLEASE LEAVE THAT SITE IMMEDIATELY
❗IT'S A DANGEROUS FAKE❗



Spicy Magazines for Men! ;-)

Jill Barber Band - Mischievous Moon (2013) [Official Digital Download 24/48]

Posted By: SERTiL
Jill Barber Band - Mischievous Moon (2013) [Official Digital Download 24/48]

Jill Barber Band - Mischievous Moon (2013)
FLAC (tracks) 24-bit/48 kHz | Time - 41:40 minutes | 498 MB
Studio Master, Official Digital Download | Artwork: Digital Booklet

As a performer, Jill Barber charms her audiences while weaving a romantic spell. Indeed, romance plays a huge role in both her life and her art. “My previous album represented the courtship phase of my career”, she muses. “With Mischievous Moon, we’re getting intimate. The romance is alive and well, but there’s something deeper to be uncovered. The moon has such a venerable presence in the night sky, keeping one eye on us. I don’t know about everyone else, but sometimes it feels like we have our own private jokes, the moon and I. From time to time I can’t help but look up and give it a little wink.

Now, with Mischievous Moon, Barber reteams with producer Les Cooper to ratchet up the atavistic gooiness several degrees, her Minnie Mouse-meets-Brenda Lee voice immersed in soggy, string-drenched arrangements. This time, the artifice ventures beyond Chances’ Jazz Age-esque confines, extending to the faux-’60s fizz of “Took Me by Surprise,” the mock Parisian bal-musette of “If It Weren’t for Loving You” and the quirky Old West showdown “Tell Me.” Still, there are several fine songs buried among all the excess, particularly Barber and Cooper’s cunning “Steal Away,” their furtive “Dis Moi” and, best of all, their teaming with Ron Sexsmith on the bright and breezy “Any Fool Can Fall in Love.”

'Four years ago, Canadian folksinger Jill Barber reinvented herself as a smoky chanteuse with the lush Chances. Thanks largely to its catchy “Oh My My,” the album ignited a rapturous outpouring of praise across her native land, and she was heralded as the second coming of Edith Piaf or even Ella Fitzgerald. Not so fast. While the album demonstrated laudable pluck and confirmed Barber’s status as a solid songwriter, her retro-fashioned bleating seemed more a parlor trick, an elaborate game of dress-up, than a sustainably valid style.' (Christopher Loudon, JazzTimes)

Tracklist:
1. Chances 03:42
2. Be My Man 03:00
3. Never Quit Loving You 02:59
4. Mischievous Moon 04:13
5. Took Me By Surprise 04:11
6. Tell Me 04:08
7. Oh My My 04:42
8. Tenderness 03:52
9. Old Flame 02:41
10. A Wish Under My Pillow 02:09
11. If It Weren t for Loving You 03:29
12. All My Dreams 02:38

Personnel:
Jill Barber, vocals
Les Copper, guitar
Victor Bateman, bass
Robbie Grunwald, piana, accordion
Joel Stouffer, drums, bongos
The Good Lovelies, vocals
The Sojourners, vocals
Ron Sexsmith, vocals
Emma-Lee, vocals (Harmonies)
Drew Jurecka, saxophone
Michael Davidson, vibraphone
Bryden Baird, flugelhorn
Joseph Shabason, flute
Chris Whitley, trumpet
Willian Carn, trombone
Spencer Evans, clarinet
Rosendo (Chendy) León, percussion
Sheldon Valleau, ukelele
Drew Jurecka, violin (Concertmaster)
Bethany Bergman, violin
Aisslinn Nosky, violin
Kathleen Kajioka, violin
Nancy Kershaw, violin
Erika Raum, violin
Karen Graves, violin
Chris Church, violin
Johann Lotter, viola
Yosef Tamir, viola
Jullian Knight, viola
Karen Moffatt, viola
Orley Bitov, cello
Lydia Munchinsky, cello
John Marshman, cello
Kevin Fox, cello
Rachel Pomedii, cello
Alex Grant, cello

Recorded at Canterbury Music Company, Toronto, ON.
The Mischievous Moon Chamber Players recorded at Glenn Gould Studio, Toronto, ON.
Engineered by Darryl Neudorf, Dennis Patterson and Adam King.
Mastered by Doug Sax and Robert Hadley at The Mastering Lab, Ojai, CA.
Produced by Les Cooper

foobar2000 1.3.7 / Dynamic Range Meter 1.1.1
log date: 2019-08-12 16:36:02

––––––––––––––––––––––––––––––––––––––––
Analyzed: Jill Barber Band / Jill Barber Band: Mischievous Moon
––––––––––––––––––––––––––––––––––––––––

DR Peak RMS Duration Track
––––––––––––––––––––––––––––––––––––––––
DR8 -0.44 dB -10.49 dB 3:42 01-Chances
DR9 -0.73 dB -11.44 dB 3:00 02-Be My Man
DR8 -0.69 dB -11.14 dB 2:59 03-Never Quit Loving You
DR10 -0.64 dB -14.56 dB 4:13 04-Mischievous Moon
DR9 0.00 dB -10.23 dB 4:11 05-Took Me By Surprise
DR9 0.00 dB -11.81 dB 4:08 06-Tell Me
DR8 -0.54 dB -10.59 dB 4:42 07-Oh My My
DR8 -0.60 dB -13.20 dB 3:52 08-Tenderness
DR9 -0.57 dB -11.41 dB 2:41 09-Old Flame
DR9 -0.82 dB -11.87 dB 2:09 10-A Wish Under My Pillow
DR9 -0.62 dB -14.09 dB 3:29 11-If It Weren t for Loving You
DR9 -1.40 dB -12.70 dB 2:38 12-All My Dreams
––––––––––––––––––––––––––––––––––––––––

Number of tracks: 12
Official DR value: DR9

Samplerate: 48000 Hz
Channels: 2
Bits per sample: 24
Bitrate: 1683 kbps
Codec: FLAC
================================================================================


Thanks to the Original customer.