Tags
Language
Tags

Jim Snidero - Waves of Calm (2019) [Official Digital Download]

Posted By: SERTiL
Jim Snidero - Waves of Calm (2019) [Official Digital Download]

Jim Snidero - Waves of Calm (2019)
FLAC (tracks) 24-bit/44.1kHz | Time - 49:35 minutes | 518 MB
Studio Master, Official Digital Download | Artwork: Digital Booklet

If you trace the path of alto saxophonist Jim Snidero's varied output for Savant, you'll note transitions with regard to instrumentation and personnel: from organ combo to quartets with guitar or piano, to the animated quintet music of tributes to Miles (MD66) and Cannonball Adderley (Jubilation!). With Waves of Calm, the veteran altoist enters a period of zeroing in on the essentials. As the saxophonist himself says, “I find myself editing more and more. I've been playing saxophone for a long time, and could easily play a lot more notes…[but now] you're just looking for the right note at the right moment, searching for that one perfect thing.” With trumpeter Jeremy Pelt on half the tracks, piano phenom Orrin Evans at the Steinway & the Rhodes and Nat Reeves and Jonathan Barber completing the rhythm section, it would Jim Snidero has indeed found that”perfect thing.”

Ran Blake and Christine Correa have cultivated a unique musical relationship through their frequent collaborations, first by acknowledging the traditional lead/accompaniment approach and then charting a path that departs from precedent, sometimes radically.

Tracklist:
1. Waves of Calm 03:30
2. Truth 08:54
3. Old Folks 06:14
4. Visions 06:55
5. I Fall in Love Too Easily 05:24
6. Dad Song 06:33
7. If I Had You 06:29
8. Estuary 05:41

Personnel:
Jim Snidero, alto saxophone
Jeremy Pelt, trumpet
Orrin Evans, piano, Fender Rhodes
Nat Reeves, double bass
Jonathan Barber, drums

foobar2000 1.3.7 / Dynamic Range Meter 1.1.1
log date: 2019-03-08 13:42:51

––––––––––––––––––––––––––––––––––––––––
Analyzed: Jim Snidero / Waves of Calm
––––––––––––––––––––––––––––––––––––––––

DR Peak RMS Duration Track
––––––––––––––––––––––––––––––––––––––––
DR15 -0.79 dB -19.00 dB 3:30 01-Waves of Calm
DR8 0.00 dB -11.86 dB 8:54 02-Truth
DR13 -0.74 dB -19.08 dB 6:14 03-Old Folks
DR9 -0.27 dB -12.45 dB 6:55 04-Visions
DR15 -0.80 dB -19.38 dB 5:24 05-I Fall in Love Too Easily
DR10 -0.29 dB -13.48 dB 6:33 06-Dad Song
DR15 -0.78 dB -19.41 dB 6:29 07-If I Had You
DR9 -0.62 dB -12.54 dB 5:41 08-Estuary
––––––––––––––––––––––––––––––––––––––––

Number of tracks: 8
Official DR value: DR12

Samplerate: 44100 Hz
Channels: 2
Bits per sample: 24
Bitrate: 1518 kbps
Codec: FLAC
================================================================================


Thanks to the Original customer.