Tags
Language
Tags

Jimmy Heath - What You're Waiting For (2021) [Official Digital Download]

Posted By: pyatak
Jimmy Heath - What You're Waiting For (2021) [Official Digital Download]

Jimmy Heath - What You're Waiting For (2021) [Official Digital Download]
FLAC (tracks) 24-bit/44.1 kHz | Front Cover | Time - 76:11 minutes | 877 MB
Jazz | Label: nagel heyer records, Official Digital Download

James Edward Heath (October 25, 1926 – January 19, 2020), nicknamed Little Bird, was an American jazz saxophonist, composer, arranger, and big band leader. He was the brother of bassist Percy Heath and drummer Albert Heath.

TRACKLIST

01. Jimmy Heath - My Ideal
02. Jimmy Heath - Lowland Lullaby
03. Jimmy Heath - Dat Dere
04. Jimmy Heath - When Sunny Gets Blue
05. Jimmy Heath - The Thumper
06. Jimmy Heath - Bells and Horns
07. Jimmy Heath - Don't You Know I Care
08. Jimmy Heath - Gemini
09. Jimmy Heath - For Minors Only
10. Jimmy Heath - For All We Know
11. Jimmy Heath - Down Shift
12. Jimmy Heath - Big "P"
13. Jimmy Heath - Goodbye
14. Jimmy Heath - On Green Dolphin Street
15. Jimmy Heath - Mona's Mood

foobar2000 1.6.2 / Dynamic Range Meter 1.1.1
log date: 2021-09-03 16:34:32

––––––––––––––––––––––––––––––––––––––––
Analyzed: Jimmy Heath / What You're Waiting For
––––––––––––––––––––––––––––––––––––––––

DR Peak RMS Duration Track
––––––––––––––––––––––––––––––––––––––––
DR8 -1.00 dB -12.37 dB 4:13 01-My Ideal
DR10 -1.00 dB -13.22 dB 4:39 02-Lowland Lullaby
DR9 -1.00 dB -12.73 dB 4:30 03-Dat Dere
DR9 -1.00 dB -13.28 dB 6:30 04-When Sunny Gets Blue
DR9 -1.00 dB -12.46 dB 4:04 05-The Thumper
DR10 -1.00 dB -13.64 dB 4:55 06-Bells and Horns
DR9 -1.00 dB -12.14 dB 5:04 07-Don't You Know I Care
DR10 -1.00 dB -14.76 dB 6:12 08-Gemini
DR10 -1.00 dB -12.82 dB 4:55 09-For Minors Only
DR10 -1.00 dB -12.73 dB 4:37 10-For All We Know
DR9 -1.00 dB -13.94 dB 5:47 11-Down Shift
DR9 -1.00 dB -12.89 dB 3:57 12-Big "P"
DR11 -1.00 dB -15.21 dB 7:07 13-Goodbye
DR9 -1.00 dB -12.79 dB 4:47 14-On Green Dolphin Street
DR9 -1.00 dB -13.55 dB 4:56 15-Mona's Mood
––––––––––––––––––––––––––––––––––––––––

Number of tracks: 15
Official DR value: DR10

Samplerate: 44100 Hz
Channels: 2
Bits per sample: 24
Bitrate: 1540 kbps
Codec: FLAC
================================================================================



Thanks to the Original customer.