Tags
Language
Tags

Jo Stafford - Happy Holiday- A Winter Wonderland (1955/2021) [Official Digital Download 24/96]

Posted By: pyatak
Jo Stafford - Happy Holiday- A Winter Wonderland (1955/2021) [Official Digital Download 24/96]

Jo Stafford - Happy Holiday- A Winter Wonderland (1955/2021) [Official Digital Download 24/96]
FLAC (tracks) 24-bit/96 kHz | Front Cover | Time - 62:33 minutes | 1,14 GB
Jazz, X-Mas | Label: RevOla, Official Digital Download

Happy Holiday is a 1955 Christmas album of Christmas songs and carols by Jo Stafford, accompanied by her husband Paul Weston and his orchestra. The entire family participated in the creation of this album; young Tim Weston is the small boy on the cover. Stafford is also joined by The Starlighters for vocal background, just as she was after her version of The Chesterfield Supper Club moved to Hollywood.

TRACKLIST

1. Jo Stafford - Winter Weather (Remastered)
2. Jo Stafford - Baby, It's Cold Outside (Remastered)
3. Jo Stafford - Sleigh Ride (Remastered)
4. Jo Stafford - By The Fireside (Remastered)
5. Jo Stafford - I've Got My Love To Keep Me Warm (Remastered)
6. Jo Stafford - Silent Night, Holy Night (Remastered)
7. Jo Stafford - Georgia On My Mind (Remastered)
8. Jo Stafford - Let It Snow! Let It Snow! Let It Snow! (Remastered)
9. Jo Stafford - Winter Wonderland (Remastered)
10. Jo Stafford - Oh, Holy Morning (Remastered)
11. Jo Stafford - It Happened In Sun Valley (Remastered)
12. Jo Stafford - Toyland (Remastered)
13. Jo Stafford - 'Twas The Night Before Christmas (Remastered)
14. Jo Stafford - June In January (Remastered)
15. Jo Stafford - March Of The Toys (Remastered)
16. Jo Stafford - The Christmas Song (Remastered)
17. Jo Stafford - I Wonder As I Wander (Remastered)
18. Jo Stafford - The Whiffenpoof Song (Remastered)
19. Jo Stafford - Jingle Bells (Remastered)
20. Jo Stafford - Nearer My God To Thee (Remastered)
21. Jo Stafford - These Will Be The Best Years Of Our Lives (Remastered)
22. Jo Stafford - Happy Holiday (Remastered)
23. Jo Stafford - O Little Town Of Bethlehem (Remastered)
24. Jo Stafford - Hanover Winter Song (Remastered)

foobar2000 1.6.2 / Dynamic Range Meter 1.1.1
log date: 2021-11-22 09:11:39

––––––––––––––––––––––––––––––––––––––––
Analyzed: Jo Stafford / Happy Holiday: A Winter Wonderland
––––––––––––––––––––––––––––––––––––––––

DR Peak RMS Duration Track
––––––––––––––––––––––––––––––––––––––––
DR11 -0.09 dB -15.25 dB 1:34 01-Winter Weather (Remastered)
DR10 -0.72 dB -13.76 dB 2:31 02-Baby, It's Cold Outside (Remastered)
DR11 -0.27 dB -13.41 dB 2:53 03-Sleigh Ride (Remastered)
DR10 -0.28 dB -14.04 dB 2:37 04-By The Fireside (Remastered)
DR10 0.00 dB -12.87 dB 2:29 05-I've Got My Love To Keep Me Warm (Remastered)
DR10 0.00 dB -15.32 dB 2:09 06-Silent Night, Holy Night (Remastered)
DR11 0.00 dB -14.06 dB 3:32 07-Georgia On My Mind (Remastered)
DR11 -0.24 dB -14.02 dB 2:05 08-Let It Snow! Let It Snow! Let It Snow! (Remastered)
DR11 0.00 dB -14.29 dB 2:21 09-Winter Wonderland (Remastered)
DR9 -0.95 dB -12.46 dB 3:04 10-Oh, Holy Morning (Remastered)
DR11 0.00 dB -14.38 dB 2:20 11-It Happened In Sun Valley (Remastered)
DR10 -0.27 dB -13.45 dB 3:03 12-Toyland (Remastered)
DR13 0.00 dB -15.71 dB 4:14 13-'Twas The Night Before Christmas (Remastered)
DR9 -0.87 dB -14.73 dB 3:21 14-June In January (Remastered)
DR10 0.00 dB -11.94 dB 2:23 15-March Of The Toys (Remastered)
DR11 0.00 dB -14.24 dB 3:33 16-The Christmas Song (Remastered)
DR12 0.00 dB -15.66 dB 2:34 17-I Wonder As I Wander (Remastered)
DR11 -0.58 dB -15.28 dB 3:22 18-The Whiffenpoof Song (Remastered)
DR10 -0.53 dB -13.28 dB 0:33 19-Jingle Bells (Remastered)
DR11 0.00 dB -14.72 dB 3:12 20-Nearer My God To Thee (Remastered)
DR9 -0.95 dB -13.41 dB 2:36 21-These Will Be The Best Years Of Our Lives (Remastered)
DR10 -0.06 dB -12.91 dB 0:45 22-Happy Holiday (Remastered)
DR12 0.00 dB -16.56 dB 1:56 23-O Little Town Of Bethlehem (Remastered)
DR11 -0.96 dB -14.71 dB 3:38 24-Hanover Winter Song (Remastered)
––––––––––––––––––––––––––––––––––––––––

Number of tracks: 24
Official DR value: DR11

Samplerate: 96000 Hz
Channels: 2
Bits per sample: 24
Bitrate: 2476 kbps
Codec: FLAC
================================================================================



Thanks to the Original customer.