Joe Satriani - Surfing with the Alien (Remastered Deluxe Edition) (1987/2020) [Official Digital Download 24/96]

Posted By: SERTiL
Joe Satriani - Surfing with the Alien (Remastered Deluxe Edition) (1987/2020) [Official Digital Download 24/96]

Joe Satriani - Surfing with the Alien (Remastered Deluxe Edition) (1987/2020)
FLAC (tracks) 24-bit/96 kHz | Time - 74:57 minutes | 1.62 GB
Studio Master, Official Digital Download | Artwork: Front Cover

From its original release in 1987, Surfing With The Alien established Joe Satriani as one of the definitive guitarists of his generation thanks to unforgettable songs like “Satch Boogie” and “Always With Me, Always With You.” More than 30 years after Surfing With The Alien went platinum, earned two Grammy Award nominations and camped out on the Billboard 200 for over a year, the remastered original album is paired on vinyl with a unique presentation of the album without its signature guitar leads—a chance for seasoned fans and aspiring shredders to appreciate what makes this album a must hear for guitar players the world over.

Tracklist:
01. Surfing with the Alien (4:24)
02. Ice 9 (4:00)
03. Crushing Day (5:15)
04. Always with Me, Always with You (3:22)
05. Satch Boogie (3:14)
06. Hill of the Skull (1:49)
07. Circles (3:27)
08. Lords of Karma (4:49)
09. Midnight (1:43)
10. Echo (5:40)
11. Surfing with the Alien (Stripped - The Backing Track) (4:26)
12. Ice 9 (Stripped - The Backing Track) (4:00)
13. Crushing Day (Stripped - The Backing Track) (5:17)
14. Always with Me, Always with You (Stripped - The Backing Track) (3:26)
15. Satch Boogie (Stripped - The Backing Track) (3:19)
16. Hill of the Skull (Stripped - The Backing Track) (1:52)
17. Circles (Stripped - The Backing Track) (3:30)
18. Lords of Karma (Stripped - The Backing Track) (5:04)
19. Midnight (Stripped - The Backing Track) (0:55)
20. Echo (Stripped - The Backing Track) (5:41)

foobar2000 1.3.7 / Dynamic Range Meter 1.1.1
log date: 2020-01-13 19:04:53

––––––––––––––––––––––––––––––––––––––––
Analyzed: Joe Satriani / Surfing with the Alien (Remastered Deluxe Edition)
––––––––––––––––––––––––––––––––––––––––

DR Peak RMS Duration Track
––––––––––––––––––––––––––––––––––––––––
DR9 -0.10 dB -10.02 dB 4:24 01-Surfing with the Alien
DR10 -0.10 dB -11.22 dB 4:00 02-Ice 9
DR8 -0.10 dB -9.51 dB 5:15 03-Crushing Day
DR11 -0.10 dB -13.21 dB 3:22 04-Always with Me, Always with You
DR8 -0.10 dB -10.60 dB 3:14 05-Satch Boogie
DR10 -0.10 dB -11.40 dB 1:49 06-Hill of the Skull
DR9 -0.10 dB -13.68 dB 3:27 07-Circles
DR7 -2.10 dB -9.95 dB 4:49 08-Lords of Karma
DR12 -2.41 dB -18.25 dB 1:43 09-Midnight
DR9 -0.10 dB -10.91 dB 5:40 10-Echo
DR7 -1.50 dB -9.69 dB 4:26 11-Surfing with the Alien (Stripped - The Backing Track)
DR8 -1.50 dB -10.61 dB 4:00 12-Ice 9 (Stripped - The Backing Track)
DR8 -1.50 dB -10.17 dB 5:17 13-Crushing Day (Stripped - The Backing Track)
DR12 -1.50 dB -15.57 dB 3:26 14-Always with Me, Always with You (Stripped - The Backing Track)
DR8 -1.50 dB -11.52 dB 3:19 15-Satch Boogie (Stripped - The Backing Track)
DR8 -1.50 dB -10.34 dB 1:52 16-Hill of the Skull (Stripped - The Backing Track)
DR7 -1.50 dB -12.42 dB 3:30 17-Circles (Stripped - The Backing Track)
DR7 -1.50 dB -9.82 dB 5:04 18-Lords of Karma (Stripped - The Backing Track)
DR9 -1.50 dB -14.33 dB 0:55 19-Midnight (Stripped - The Backing Track)
DR8 -1.50 dB -11.22 dB 5:41 20-Echo (Stripped - The Backing Track)
––––––––––––––––––––––––––––––––––––––––

Number of tracks: 20
Official DR value: DR9

Samplerate: 96000 Hz
Channels: 2
Bits per sample: 24
Bitrate: 2861 kbps
Codec: FLAC
================================================================================


Thanks to the Original customer.