Tags
Language
Tags

John Denver: John Denver Sings `66, Whose Garden Was This `70, John Denver `79 (2017)

Posted By: v3122
John Denver: John Denver Sings `66, Whose Garden Was This `70, John Denver `79 (2017)

John Denver: John Denver Sings `66, Whose Garden Was This `70, John Denver `79 (2017)
FLAC (Tracks) 24-bit/44.1, 96 kHz | Official Digital Download
Country & Bluegrass | Remastered | RCA/Legacy | ~ 1.78 Gb

John Denver was one of the top five best-selling artists of all time with 14 gold and eight platinum albums in the United States and was popular around the world. John Denver was inducted into the Songwriters Hall of Fame in 1996.
Born December 31, 1943. in Roswell, New Mexico.
Died at Pacific Grove, California on October 12, 1997, when the single-engine airplane he was piloting crashed into the sea. He was 53 years old.

~ discogs
John Denver: John Denver Sings `66, Whose Garden Was This `70, John Denver `79 (2017)

John Denver: John Denver Sings `66, Whose Garden Was This `70, John Denver `79 (2017):

John Denver: John Denver Sings `66, Whose Garden Was This `70, John Denver `79 (2017)

Tracklist Disc 1. 1966 - John Denver Sings (2017) [24-44,1]:

01. Here, There & Everywhere (02:37)
02. Ann (02:22)
03. Babe, I Hate to Go (03:14)
04. When I Was a Cowboy (01:48)
05. Yesterday (02:18)
06. Blues My Naughty Baby Taught Me (02:40)
07. What's That I Hear Now? (03:08)
08. And I Love Her (03:13)
09. When Will I Be Loved? (01:52)
10. Darcy Farrow (03:35)
11. Minor Swing (02:16)
12. In My Life (01:54)
13. Farewell Party (01:57)

foobar2000 1.3.3 (cdpos.biz) / Dynamic Range Meter 1.1.1

––––––––––––––––––––––––––––––––––––––––
Analyzed: John Denver / John Denver Sings
––––––––––––––––––––––––––––––––––––––––

DR Peak RMS Duration Track
––––––––––––––––––––––––––––––––––––––––
DR10 -0.33 dB -14.75 dB 2:38 01-Here, There & Everywhere
DR8 -1.72 dB -11.84 dB 2:23 02-Ann
DR9 -2.05 dB -13.98 dB 3:14 03-Babe, I Hate to Go
DR9 -0.42 dB -13.56 dB 1:49 04-When I Was a Cowboy
DR8 -1.01 dB -13.44 dB 2:18 05-Yesterday
DR9 -0.14 dB -12.35 dB 2:40 06-Blues My Naughty Baby Taught Me
DR9 -0.79 dB -12.68 dB 3:09 07-What's That I Hear Now?
DR9 -1.16 dB -14.68 dB 3:13 08-And I Love Her
DR8 -1.13 dB -12.23 dB 1:52 09-When Will I Be Loved?
DR11 -1.15 dB -16.00 dB 3:35 10-Darcy Farrow
DR10 -1.68 dB -12.95 dB 2:17 11-Minor Swing
DR10 -2.21 dB -15.21 dB 1:54 12-In My Life
DR7 -0.88 dB -10.17 dB 1:57 13-Farewell Party
––––––––––––––––––––––––––––––––––––––––

Number of tracks: 13
Official DR value: DR9

Samplerate: 44100 Hz
Channels: 2
Bits per sample: 24
Bitrate: 786 kbps
Codec: FLAC

John Denver: John Denver Sings `66, Whose Garden Was This `70, John Denver `79 (2017)

Tracklist Disc 2. 1970 - Whose Garden Was This (2017) [24-96]:

1. Tremble If You Must (Remastered) 01:24
2. Sail Away Home (Remastered) 04:38
3. The Night They Drove Old Dixie Down (Remastered) 03:58
4. Mr. Bojangles (Remastered) 04:39
5. I Wish I Could Have Been There (Woodstock) (Remastered) 02:31
6. Whose Garden Was This (Remastered) 03:48
7. The Game Is Over (Remastered) 02:27
8. Eleanor Rigby (Remastered) 03:12
9. Old Folks (Remastered) 05:01
10. Golden Slumbers / Sweet Sweet Life / Tremble If You Must (Version II) (Remastered) 04:32
11. Jingle Bells (Remastered) 01:06

foobar2000 1.3.16 / Dynamic Range Meter 1.1.1

––––––––––––––––––––––––––––––––––––––––
Analyzed: John Denver / Whose Garden Was This
––––––––––––––––––––––––––––––––––––––––

DR Peak RMS Duration Track
––––––––––––––––––––––––––––––––––––––––
DR10 -4.59 dB -17.84 dB 1:25 01-Tremble If You Must (Remastered)
DR10 -0.87 dB -13.58 dB 4:39 02-Sail Away Home (Remastered)
DR11 -0.27 dB -14.33 dB 3:58 03-The Night They Drove Old Dixie Down (Remastered)
DR13 -1.72 dB -18.30 dB 4:40 04-Mr. Bojangles (Remastered)
DR10 -0.56 dB -14.28 dB 2:31 05-I Wish I Could Have Been There (Woodstock) (Remastered)
DR10 -1.22 dB -17.57 dB 3:49 06-Whose Garden Was This (Remastered)
DR11 -3.07 dB -19.54 dB 2:27 07-The Game Is Over (Remastered)
DR11 -1.61 dB -16.89 dB 3:13 08-Eleanor Rigby (Remastered)
DR12 -3.25 dB -20.71 dB 5:02 09-Old Folks (Remastered)
DR11 -3.61 dB -18.54 dB 4:32 10-Golden Slumbers _ Sweet Sweet Life _ Tremble If You Must (Version II) (Remastered)
DR11 -4.84 dB -24.31 dB 1:07 11-Jingle Bells (Remastered)
––––––––––––––––––––––––––––––––––––––––

Number of tracks: 11
Official DR value: DR11

Samplerate: 96000 Hz
Channels: 2
Bits per sample: 24
Bitrate: 2793 kbps
Codec: FLAC

John Denver: John Denver Sings `66, Whose Garden Was This `70, John Denver `79 (2017)

Tracklist Disc 3. 1979 - John Denver (2017) [24-96]:

1. Downhill Stuff (Remastered) 03:35
2. Sweet Melinda (Remastered) 02:32
3. What’s on Your Mind (Remastered) 04:27
4. Joseph & Joe (Remastered) 03:43
5. Life Is so Good (Remastered) 01:56
6. Berkeley Woman (Remastered) 04:13
7. Johnny B. Goode (Remastered) 03:06
8. You’re so Beautiful (Remastered) 03:11
9. Southwind (Remastered) 03:30
10. Garden Song (Remastered) 02:47
11. Songs Of … (Remastered) 05:23

foobar2000 1.3.7 / Dynamic Range Meter 1.1.1

––––––––––––––––––––––––––––––––––––––––
Analyzed: John Denver / John Denver
––––––––––––––––––––––––––––––––––––––––

DR Peak RMS Duration Track
––––––––––––––––––––––––––––––––––––––––
DR13 -0.72 dB -16.26 dB 3:35 01-Downhill Stuff (Remastered)
DR12 -0.73 dB -16.17 dB 2:32 02-Sweet Melinda (Remastered)
DR13 -0.70 dB -17.53 dB 4:28 03-What's on Your Mind (Remastered)
DR13 -2.39 dB -19.63 dB 3:43 04-Joseph & Joe (Remastered)
DR12 -2.83 dB -17.59 dB 1:57 05-Life Is so Good (Remastered)
DR13 0.00 dB -16.62 dB 4:14 06-Berkeley Woman (Remastered)
DR12 -0.94 dB -15.46 dB 3:06 07-Johnny B. Goode (Remastered)
DR13 0.00 dB -16.98 dB 3:12 08-You're so Beautiful (Remastered)
DR14 -1.21 dB -17.87 dB 3:30 09-Southwind (Remastered)
DR12 -3.19 dB -18.25 dB 2:47 10-Garden Song (Remastered)
DR15 -1.15 dB -19.76 dB 5:23 11-Songs Of … (Remastered)
––––––––––––––––––––––––––––––––––––––––

Number of tracks: 11
Official DR value: DR13

Samplerate: 96000 Hz
Channels: 2
Bits per sample: 24
Bitrate: 2736 kbps
Codec: FLAC

All thanks go to the original releaser

John Denver in my Blog

Download John Denver: John Denver Sings `66, Whose Garden Was This `70, John Denver `79 (2017):