John Mellencamp - Other People's Stuff (2018) [Official Digital Download 24/96]

Posted By: SERTiL
John Mellencamp - Other People's Stuff (2018) [Official Digital Download 24/96]

John Mellencamp - Other People's Stuff (2018)
FLAC (tracks) 24-bit/96 kHz | Time - 34:15 minutes | 765 MB
Studio Master, Official Digital Download | Artwork: Front Cover

Rock and Roll Hall Of Fame and Songwriters Hall of Fame inductee John Mellencamp releases his 24th studio album Other People’s Stuff via Republic Records.

Not only has Mellencamp released hundreds of original songs over his illustrious career, but he has recorded numerous celebrated covers. For as renowned as his original material remains, Mellencamp has breathed new life and spirit into various staples of the classic American musical canon as well. A handpicked selection of those covers comprises the aptly titled, Other People’s Stuff.

Culled from seminal albums, compilations, unearthed sessions and documentaries, this record serves as a proud homage to some of the greatest songs in history. For the album, Mellencamp recorded a brand-new version of “Eyes on the Prize” which was originally performed at The White House. Mellencamp was asked by the Obama administration to perform for the 2010 Celebration of Music from the Civil Rights Movement event. See link to the memorable performance here. Listen to “Eyes on The Prize” HERE.

About the collection, Mellencamp commented, “Most, if not all, of the songs on Other People’s Stuff come from The Great American Songbook. These are songs that have been recorded over the last 40 years of my career, but had never been put together as one piece of work. Now, they have.”

The new album sets the stage for his 2019 tour of “The John Mellencamp Show”, which will feature the rock icon’s classics plus some new material. Hailed by critics and fans alike as one of music’s most authentic and crowd-pleasing concert performer, he kicks off the tour February 7th in his home state of Indiana at South Bend’s Morris Performing Arts Center. Yesterday, Mellencamp announced additional dates for the tour which will extend the already lengthy 2019 run with 14 additional shows, making stops across America. For more information and all ticketing information please visit Mellencamp.com.

Mellencamp’s live shows have garnered huge critical acclaim with the Hollywood Reporter calling it a “triumphant, career-spanning show” and a “superb performance…still full of fiery defiance” by the Boston Globe. His extensive touring and live shows have solidified the Rock and Roll Hall-of-Famer’s place at the forefront of American music for the past 40 years.

Tracklist:
01. To The River (03:32)
02. Gambling Bar Room Blues (03:14)
03. Teardrops Will Fall (04:16)
04. In My Time Of Dying (03:01)
05. Mobile Blue (03:01)
06. Eyes On The Prize (02:45)
07. Dark As A Dungeon (04:10)
08. Stones In My Passway (03:12)
09. Wreck Of The Old 97 (03:58)
10. I Don't Know Why I Love You (03:08)

foobar2000 1.3.7 / Dynamic Range Meter 1.1.1
log date: 2018-12-07 03:36:36

––––––––––––––––––––––––––––––––––––––––
Analyzed: John Mellencamp / Other People's Stuff
––––––––––––––––––––––––––––––––––––––––

DR Peak RMS Duration Track
––––––––––––––––––––––––––––––––––––––––
DR7 -0.20 dB -9.07 dB 3:32 01-To The River
DR8 -0.20 dB -9.94 dB 3:15 02-Gambling Bar Room Blues
DR9 -0.20 dB -9.95 dB 4:17 03-Teardrops Will Fall
DR9 -0.20 dB -10.59 dB 3:02 04-In My Time Of Dying
DR8 -0.20 dB -9.20 dB 3:01 05-Mobile Blue
DR10 -0.20 dB -12.61 dB 2:46 06-Eyes On The Prize
DR9 -0.20 dB -11.39 dB 4:11 07-Dark As A Dungeon
DR9 -0.20 dB -11.04 dB 3:13 08-Stones In My Passway
DR9 -0.20 dB -11.95 dB 3:58 09-Wreck Of The Old 97
DR9 -0.20 dB -10.40 dB 3:06 10-I Don't Know Why I Love You
––––––––––––––––––––––––––––––––––––––––

Number of tracks: 10
Official DR value: DR9

Samplerate: 96000 Hz
Channels: 2
Bits per sample: 24
Bitrate: 3051 kbps
Codec: FLAC
================================================================================


Thanks to the Original customer.