Johnny Cash - Johnny 99 (1983/2014) [Official Digital Download 24/96]

Posted By: SERTiL
Johnny Cash - Johnny 99 (1983/2014) [Official Digital Download 24/96]

Johnny Cash - Johnny 99 (1983/2014)
FLAC (tracks) 24-bit/96 kHz | Time - 36:00 minutes | 705 MB
Studio Master, Official Digital Download | Artwork: Front Cover

Although it went virtually unnoticed upon its initial release in 1983, this intriguing record momentarily put a halt to Johnny Cash's precipitous artistic decline and kept the promise of his resurgence alive. Recorded in Los Angeles with session men including Marty Stuart, Norton Buffalo, Jo-El Sonnier, and producer Brian Ahern, Johnny 99 focuses on the work of younger songwriters–Bruce Springsteen, Paul Kennerley, Guy Clark–and might be the lone oasis in an otherwise barren decade. The solemn opener, Springsteen's "Highway Patrolman," sets the tone as Cash turns a very restrained reading into an emotional powerhouse, supported by Hoyt Axton's baritone growl. The Springsteen-penned title track becomes a honky-tonk anthem as Cash delivers the Boss's lyrics with acute understanding. The touching Civil War ballad "God Bless Robert E. Lee," the tropical/topical "Joshua Gone Barbados," and the attractive duet with June Carter on Kennerley's "Brand New Dance" help round out a rather diverse (for Cash) collection. Aside from the occasional guitar effect and unnecessary keyboard intrusion (it was 1983 after all), this set marks a high point of a low period. –Marc Greilsamer

Tracklist:
01. Highway Patrolman (5:24)
02. That's The Truth (2:48)
03. God Bless Robert E. Lee (3:45)
04. New Cut Road (3:37)
05. Johnny 99 (3:37)
06. Ballad Of The Ark (2:57)
07. Joshua Gone Barbados (5:13)
08. Girl From The Canyon (2:42)
09. Brand New Dance (3:27)
10. I'm Ragged But I'm Right (2:35)

foobar2000 1.3.7 / Dynamic Range Meter 1.1.1
log date: 2018-01-13 13:49:14

––––––––––––––––––––––––––––––––––––––––
Analyzed: Johnny Cash / Johnny 99
––––––––––––––––––––––––––––––––––––––––

DR Peak RMS Duration Track
––––––––––––––––––––––––––––––––––––––––
DR14 -0.29 dB -17.88 dB 5:24 01-Highway Patrolman
DR15 -0.04 dB -16.96 dB 2:48 02-That's The Truth
DR14 -0.80 dB -19.31 dB 3:45 03-God Bless Robert E. Lee
DR13 -0.92 dB -16.32 dB 3:37 04-New Cut Road
DR14 0.00 dB -16.59 dB 3:37 05-Johnny 99
DR16 -0.09 dB -17.85 dB 2:57 06-Ballad Of The Ark
DR15 0.00 dB -17.85 dB 5:13 07-Joshua Gone Barbados
DR15 -0.30 dB -17.51 dB 2:42 08-Girl From The Canyon
DR15 -0.09 dB -17.84 dB 3:27 09-Brand New Dance
DR14 -0.78 dB -17.40 dB 2:35 10-I'm Ragged But I'm Right
––––––––––––––––––––––––––––––––––––––––

Number of tracks: 10
Official DR value: DR15

Samplerate: 96000 Hz
Channels: 2
Bits per sample: 24
Bitrate: 2813 kbps
Codec: FLAC
================================================================================


Thanks to the Original customer.