Tags
Language
Tags

Johnny Duncan and the Bluegrass Boys - Last Train To San Fernando (1957/2021) [Official Digital Download 24/96]

Posted By: pyatak
Johnny Duncan and the Bluegrass Boys - Last Train To San Fernando (1957/2021) [Official Digital Download 24/96]

Johnny Duncan and the Bluegrass Boys - Last Train To San Fernando (1957/2021) [Official Digital Download 24/96]
FLAC (tracks) 24-bit/96 kHz | Front Cover | Time - 75:28 minutes | 749 MB
Rock, Rockabilly | Label: Columbia, Official Digital Download

"Last Train to San Fernando" is a Trinidadian calypso song written by Sylvester DeVere, Randolph Padmore, and Mighty Dictator, the latter being a pseudonym for Kenny St. Bernard.

Johnny Duncan, a British-based American musician, recorded a skiffle version (accompanied by the Blue Grass Boys), which was a #2 hit on the UK Singles Chart in 1957. In the U.K., Duncan's recording was released by Columbia Records[4] while in the U.S. it was released as a single by Capitol Records.

Among the other artists who recorded the song were The Duke of Iron in 1952 and Bobby Short in 1957.

TRACKLIST

1. Johnny Duncan and the Bluegrass Boys - Last Train To San Fernando (Remastered)
2. Johnny Duncan and the Bluegrass Boys - Rock-A-Billy Baby (Remastered)
3. Johnny Duncan and the Bluegrass Boys - Footprints In The Snow (Remastered)
4. Johnny Duncan and the Bluegrass Boys - Blue Blue Heartache (Remastered)
5. Johnny Duncan and the Bluegrass Boys - Jig Along Home (Remastered)
6. Johnny Duncan and the Bluegrass Boys - If You Love Me Baby (Remastered)
7. Johnny Duncan and the Bluegrass Boys - Goodnight Irene (Remastered)
8. Johnny Duncan and the Bluegrass Boys - Freight Train Blues (Remastered)
9. Johnny Duncan and the Bluegrass Boys - Press On (Remastered)
10. Johnny Duncan and the Bluegrass Boys - Johnny's Blue Yodel (Remastered)
11. Johnny Duncan and the Bluegrass Boys - Out Of Business (Remastered)
12. Johnny Duncan and the Bluegrass Boys - Get Along Home, Cindy (Remastered)
13. Johnny Duncan and the Bluegrass Boys - Old Blue (Remastered)
14. Johnny Duncan and the Bluegrass Boys - Calamity Mose (Remastered)
15. Johnny Duncan and the Bluegrass Boys - Just A Little Lovin' (Remastered)
16. Johnny Duncan and the Bluegrass Boys - Which Way Did He Go (Remastered)
17. Johnny Duncan and the Bluegrass Boys - More And More (Remastered)
18. Johnny Duncan and the Bluegrass Boys - Just A Closer Walk With Thee (Remastered)
19. Johnny Duncan and the Bluegrass Boys - Travelin' Blues (Remastered)
20. Johnny Duncan and the Bluegrass Boys - St. James Infirmary (Remastered)
21. Johnny Duncan and the Bluegrass Boys - Mind Your Own Business (Remastered)
22. Johnny Duncan and the Bluegrass Boys - Kaw-Liga (Remastered)
23. Johnny Duncan and the Bluegrass Boys - Ella Speed (Remastered)
24. Johnny Duncan and the Bluegrass Boys - Doin' My Time (Remastered)
25. Johnny Duncan and the Bluegrass Boys - Where Could I Go? (Remastered)
26. Johnny Duncan and the Bluegrass Boys - Can't You Line 'Em? (Remastered)
27. Johnny Duncan and the Bluegrass Boys - Gipsy Davy (Remastered)
28. Johnny Duncan and the Bluegrass Boys - Blue Yodel (Remastered)
29. Johnny Duncan and the Bluegrass Boys - Blowin' Down This Old Dusty Road (Remastered)

foobar2000 1.6.2 / Dynamic Range Meter 1.1.1
log date: 2021-08-10 11:13:43

––––––––––––––––––––––––––––––––––––––––
Analyzed: Johnny Duncan and the Bluegrass Boys / Last Train To San Fernando
––––––––––––––––––––––––––––––––––––––––

DR Peak RMS Duration Track
––––––––––––––––––––––––––––––––––––––––
DR11 -0.16 dB -12.53 dB 2:29 01-Last Train To San Fernando (Remastered)
DR10 -0.20 dB -11.90 dB 2:10 02-Rock-A-Billy Baby (Remastered)
DR8 -0.18 dB -9.69 dB 2:23 03-Footprints In The Snow (Remastered)
DR9 -0.13 dB -11.69 dB 2:24 04-Blue Blue Heartache (Remastered)
DR11 -0.43 dB -12.68 dB 2:07 05-Jig Along Home (Remastered)
DR11 -0.18 dB -12.97 dB 2:19 06-If You Love Me Baby (Remastered)
DR11 -0.19 dB -13.40 dB 2:55 07-Goodnight Irene (Remastered)
DR11 -0.20 dB -13.66 dB 1:50 08-Freight Train Blues (Remastered)
DR11 -0.34 dB -13.97 dB 2:24 09-Press On (Remastered)
DR9 -0.21 dB -12.01 dB 2:45 10-Johnny's Blue Yodel (Remastered)
DR10 -0.24 dB -11.32 dB 2:21 11-Out Of Business (Remastered)
DR10 -0.24 dB -11.49 dB 2:24 12-Get Along Home, Cindy (Remastered)
DR9 -0.25 dB -11.57 dB 2:51 13-Old Blue (Remastered)
DR9 -0.19 dB -11.27 dB 2:46 14-Calamity Mose (Remastered)
DR8 -0.20 dB -10.22 dB 2:09 15-Just A Little Lovin' (Remastered)
DR9 -0.20 dB -11.50 dB 2:15 16-Which Way Did He Go (Remastered)
DR10 -0.24 dB -13.37 dB 2:04 17-More And More (Remastered)
DR7 -0.19 dB -9.56 dB 3:56 18-Just A Closer Walk With Thee (Remastered)
DR9 -0.22 dB -10.53 dB 2:10 19-Travelin' Blues (Remastered)
DR8 -0.23 dB -10.35 dB 3:19 20-St. James Infirmary (Remastered)
DR8 -0.23 dB -10.54 dB 2:05 21-Mind Your Own Business (Remastered)
DR9 -0.17 dB -11.08 dB 2:58 22-Kaw-Liga (Remastered)
DR9 0.00 dB -10.60 dB 3:17 23-Ella Speed (Remastered)
DR11 -0.04 dB -13.36 dB 3:29 24-Doin' My Time (Remastered)
DR13 0.00 dB -14.07 dB 2:47 25-Where Could I Go? (Remastered)
DR12 0.00 dB -13.86 dB 2:06 26-Can't You Line 'Em? (Remastered)
DR14 -0.04 dB -15.57 dB 2:17 27-Gipsy Davy (Remastered)
DR11 -0.22 dB -14.34 dB 3:27 28-Blue Yodel (Remastered)
DR12 -0.15 dB -14.03 dB 3:16 29-Blowin' Down This Old Dusty Road (Remastered)
––––––––––––––––––––––––––––––––––––––––

Number of tracks: 29
Official DR value: DR10

Samplerate: 96000 Hz
Channels: 2
Bits per sample: 24
Bitrate: 1135 kbps
Codec: FLAC
================================================================================



Thanks to the Original customer.