Johnny Otis - The Fabulous Johnny Otis Show! (2021) [Official Digital Download 24/96]

Posted By: pyatak
Johnny Otis - The Fabulous Johnny Otis Show! (2021) [Official Digital Download 24/96]

Johnny Otis - The Fabulous Johnny Otis Show! (2021) [Official Digital Download 24/96]
FLAC (tracks) 24-bit/96 kHz | Front Cover | Time - 73:51 minutes | 1,06 GB
Soul | Label: RevOla, Official Digital Download

Johnny Otis (born Ioannis Alexandres Veliotes; December 28, 1921 – January 17, 2012) was an American singer, musician, composer, arranger, bandleader, talent scout, disc jockey, record producer, television show host, artist, author, journalist, minister, and impresario. He was a seminal influence on American R&B and rock and roll. He discovered numerous artists early in their careers who went on to become highly successful in their own right, including Little Esther Phillips, Etta James, Big Mama Thornton, Johnny Ace, Jackie Wilson, Little Willie John, Hank Ballard, and The Robins (who eventually changed their name to The Coasters), among many others. Otis has been called the "Godfather of Rhythm and Blues".

TRACKLIST

1. Johnny Otis - Harlem Nocturne (Remastered)
2. Johnny Otis - Jimmy's Round The Clock (Remastered)
3. Johnny Otis - My Baby's Business (Remastered)
4. Johnny Otis - Preston Love's Mansion (Remastered)
5. Johnny Otis - Midnight In The Barrelhouse (Remastered)
6. Johnny Otis - Boogie Guitar (Remastered)
7. Johnny Otis - Ain't Nothin Shakin (Remastered)
8. Johnny Otis - Hangover Blues (Remastered)
9. Johnny Otis - Get Together Blues (Remastered)
10. Johnny Otis - I'm Not Falling In Love With You (Remastered)
11. Johnny Otis - If It's So Baby (Remastered)
12. Johnny Otis - Our Romance Is Gone (Remastered)
13. Johnny Otis - If I Didn't Love You So (Remastered)
14. Johnny Otis - Rain In My Eyes (Remastered)
15. Johnny Otis - Double Crossing Blues (Remastered)
16. Johnny Otis - Headhunter (Remastered)
17. Johnny Otis - Going To See My Baby (Remastered)
18. Johnny Otis - The Little Red Hen (Remastered)
19. Johnny Otis - New Orleans Shuffle (Remastered)
20. Johnny Otis - The Turkey Hop, Pt. 1 (Remastered)
21. Johnny Otis - The Turkey Hop, Pt. 2 (Remastered)
22. Johnny Otis - Blues Nocturne (Remastered)
23. Johnny Otis - Cry Baby (Remastered)
24. Johnny Otis - Lover's Lane Boogie (Remastered)
25. Johnny Otis - I Found Out My Troubles (Remastered)
26. Johnny Otis - Misery (Remastered)

foobar2000 1.6.2 / Dynamic Range Meter 1.1.1
log date: 2021-06-20 14:41:44

––––––––––––––––––––––––––––––––––––––––
Analyzed: Johnny Otis / The Fabulous Johnny Otis Show!
––––––––––––––––––––––––––––––––––––––––

DR Peak RMS Duration Track
––––––––––––––––––––––––––––––––––––––––
DR10 -1.34 dB -14.35 dB 3:08 01-Harlem Nocturne (Remastered)
DR10 -1.55 dB -13.42 dB 3:10 02-Jimmy's Round The Clock (Remastered)
DR10 -2.24 dB -14.75 dB 3:03 03-My Baby's Business (Remastered)
DR10 -2.02 dB -14.58 dB 3:05 04-Preston Love's Mansion (Remastered)
DR9 -3.81 dB -14.64 dB 3:06 05-Midnight In The Barrelhouse (Remastered)
DR11 -2.01 dB -16.33 dB 2:36 06-Boogie Guitar (Remastered)
DR15 -1.11 dB -20.58 dB 2:29 07-Ain't Nothin Shakin (Remastered)
DR13 -1.88 dB -18.10 dB 2:52 08-Hangover Blues (Remastered)
DR11 -1.63 dB -14.96 dB 2:37 09-Get Together Blues (Remastered)
DR14 -1.11 dB -17.94 dB 2:41 10-I'm Not Falling In Love With You (Remastered)
DR14 -1.11 dB -17.14 dB 3:06 11-If It's So Baby (Remastered)
DR12 -1.37 dB -16.10 dB 2:35 12-Our Romance Is Gone (Remastered)
DR12 -1.78 dB -15.69 dB 3:12 13-If I Didn't Love You So (Remastered)
DR12 -1.78 dB -16.58 dB 3:16 14-Rain In My Eyes (Remastered)
DR13 -1.65 dB -17.67 dB 2:48 15-Double Crossing Blues (Remastered)
DR13 -2.59 dB -17.53 dB 3:04 16-Headhunter (Remastered)
DR11 -2.35 dB -15.91 dB 2:39 17-Going To See My Baby (Remastered)
DR11 -1.11 dB -13.94 dB 2:30 18-The Little Red Hen (Remastered)
DR12 -1.12 dB -15.02 dB 2:41 19-New Orleans Shuffle (Remastered)
DR13 -2.01 dB -16.57 dB 2:37 20-The Turkey Hop, Pt. 1 (Remastered)
DR12 -1.97 dB -15.94 dB 2:42 21-The Turkey Hop, Pt. 2 (Remastered)
DR10 -1.73 dB -14.08 dB 2:50 22-Blues Nocturne (Remastered)
DR11 -1.51 dB -17.23 dB 3:02 23-Cry Baby (Remastered)
DR12 -2.10 dB -16.28 dB 2:31 24-Lover's Lane Boogie (Remastered)
DR12 -1.71 dB -14.92 dB 2:42 25-I Found Out My Troubles (Remastered)
DR11 -1.67 dB -14.61 dB 2:47 26-Misery (Remastered)
––––––––––––––––––––––––––––––––––––––––

Number of tracks: 26
Official DR value: DR12

Samplerate: 96000 Hz
Channels: 2
Bits per sample: 24
Bitrate: 2056 kbps
Codec: FLAC
================================================================================



Thanks to the Original customer.