Please register here if you want to download anything!

If domain in your address bar is different from the list below
PLEASE LEAVE THAT SITE IMMEDIATELY
❗IT'S A DANGEROUS FAKE❗



Spicy Magazines for Men! ;-)

Jools Holland & Jose Feliciano - As You See Me Now (2017) [Official Digital Download]

Posted By: pyatak
Jools Holland & Jose Feliciano - As You See Me Now (2017) [Official Digital Download]

Jools Holland & Jose Feliciano - As You See Me Now (2017) [Official Digital Download]
FLAC (tracks) 24-bit/44.1 kHz | Front Cover | Time - 49:49 minutes | 565 MB
Vocal Jazz| Label: Rhino, Official Digital Download

Music maestro Jools Holland releases the incredible collaborative new album with legendary Latin musician José Feliciano. The 14-track album includes iconic covers from a wide range of artists such as Stevie Wonders Treat Myself, Lead Bellys Midnight Special and the timeless soul classic, Percy Mayfields Hit The Road Jack. The album also features international hits from José Feliciano such as Lets Find Each Other Tonight and One More Drink. Many of the tracks on the album feature Jools renowned Rhythm & Blues Orchestra. Josés festive favourite Feliz Navidad is also given a completely new ska makeover. Another highlight of the album is the title track, As You See Me Now, which was written by Jools himself and sung by José. Also featured is a duet with Rita Wilson called Youre So Cold that she co-wrote with Jools while they were in the Antarctic last year.

TRACKLIST

1. As You See Me Now
2. Treat Myself
3. Just To Be Home With You
4. Honeysuckle Rose
5. One More Drink
6. Midnight Special
7. Hit The Road Jack feat. Ruby Turner
8. In My Life
9. Lets Find Each Other Tonight
10. Youre So Cold feat. Rita Wilson
11. Baby Can I Hold You
12. Believe Me When I Tell You
13. Feliz Navidad
14. Happy New Year

foobar2000 1.3.16 / Dynamic Range Meter 1.1.1
log date: 2017-11-16 16:26:53

––––––––––––––––––––––––––––––––––––––––
Analyzed: Jools Holland & Jose Feliciano / As You See Me Now
––––––––––––––––––––––––––––––––––––––––

DR Peak RMS Duration Track
––––––––––––––––––––––––––––––––––––––––
DR9 0.00 dB -10.59 dB 3:28 01-As You See Me Now
DR8 0.00 dB -9.90 dB 4:39 02-Treat Myself
DR8 0.00 dB -10.43 dB 3:12 03-Just To Be Home With You
DR9 0.00 dB -11.11 dB 4:56 04-Honeysuckle Rose
DR10 -0.18 dB -12.41 dB 3:10 05-One More Drink
DR8 0.00 dB -9.92 dB 3:18 06-Midnight Special
DR9 0.00 dB -10.19 dB 3:03 07-Hit the Road Jack (feat. Ruby Turner)
DR11 -0.79 dB -13.00 dB 3:41 08-In My Life
DR9 -0.68 dB -11.13 dB 3:32 09-Let's Find Each Other Tonight
DR8 -0.06 dB -12.63 dB 3:28 10-You're So Cold (feat. Rita Wilson)
DR9 -0.26 dB -11.48 dB 3:37 11-Baby Can I Hold You
DR8 -0.51 dB -10.62 dB 3:58 12-Believe Me When I Tell You
DR9 0.00 dB -10.01 dB 3:01 13-Feliz Navidad
DR9 0.00 dB -10.58 dB 2:56 14-Happy New Year
––––––––––––––––––––––––––––––––––––––––

Number of tracks: 14
Official DR value: DR9

Samplerate: 44100 Hz
Channels: 2
Bits per sample: 24
Bitrate: 1621 kbps
Codec: FLAC
================================================================================



Thanks to the Original customer.