Julius-Jeongwon Kim - Schubert, Schumann, Brahms, Strauss (2020) [Official Digital Download]

Posted By: pyatak
Julius-Jeongwon Kim - Schubert, Schumann, Brahms, Strauss (2020) [Official Digital Download]

Julius-Jeongwon Kim - Schubert, Schumann, Brahms, Strauss (2020) [Official Digital Download]
FLAC (tracks) 24-bit/48 kHz | Front Cover | Time - 47:43 minutes | 467 MB
Classical | Label: Universal Music Ltd., Official Digital Download

Pianist Julius Jeongwon Kim has appeared as soloist with world-renowned orchestras, including London Symphony Orchestra, Wiener Symphoniker, Czech Philharmonic, NDR Elbphilharmonie Orchestra, Toronto Symphony Orchestra, Danish National Symphony Orchestra and Seoul Philharmonic Orchestra, in major concert venues worldwide. He has been invited to perform for the former Czech president Vaclav Klaus, former US president George W. Bush, and late former Polish president Lech Aleksander Kaczynski. In recent years, Julius premiered Rachmaninov’s Piano Concerto No. 5 in Asia, a piece he subsequently recorded with Deutsche Grammophon.

Julius is a graduate of the University of Music and Performing Arts in Vienna and the Cycle de Perfectionnement program at the Conservatoire de Paris. He was a top prize winner at major competitions, such as the Maria Canals Competition, Bösendorfer Competition, Elena Rombro-Stepanow Piano Competition, and Dong-A Music Competition. Since serving as a professor at Kyung Hee University in Seoul from 2009 to 2016, Julius continues to perform as a Universal Music Artist, Artistic Director and Host of Naver V Salon Concert, as well as Artist in Residence at the Sejong Center and the Lotte Concert Hall.

"A pianist who interprets logically and maintains character while never losing musical taste.” (Paul Badura-Skoda)

TRACKLIST

1. Julius-Jeongwon Kim - Schubert: Frühlingsglaube, D. 686b
2. Julius-Jeongwon Kim - Schubert: Die Forelle, D. 550
3. Julius-Jeongwon Kim - Schubert: Du bist die Ruh', D. 776
4. Julius-Jeongwon Kim - Schubert: Nacht und Träume, Op. 43 No. 2, D. 827
5. Julius-Jeongwon Kim - 24. Du bist wie eine Blume
6. Julius-Jeongwon Kim - 3. Die Lotosblume
7. Julius-Jeongwon Kim - 1. Widmung
8. Julius-Jeongwon Kim - 5. Schöne Wiege meiner Leiden
9. Julius-Jeongwon Kim - 2. Die Mainacht - Wann der silberne Mond
10. Julius-Jeongwon Kim - 9. Wie bist du, meine Königin
11. Julius-Jeongwon Kim - 2. Feldeinsamkeit
12. Julius-Jeongwon Kim - 2. Nicht mehr zu dir zu gehen
13. Julius-Jeongwon Kim - 4. Morgen!
14. Julius-Jeongwon Kim - 8. Allerseelen
15. Julius-Jeongwon Kim - 1. Zueignung
16. Julius-Jeongwon Kim - 3. Die Nacht

foobar2000 1.6.2 / Dynamic Range Meter 1.1.1
log date: 2021-01-12 15:19:13

––––––––––––––––––––––––––––––––––––––––
Analyzed: Julius-Jeongwon Kim / Schubert, Schumann, Brahms, Strauss
––––––––––––––––––––––––––––––––––––––––

DR Peak RMS Duration Track
––––––––––––––––––––––––––––––––––––––––
DR11 -1.27 dB -16.86 dB 3:24 01-Schubert: Frühlingsglaube, D. 686b
DR13 -2.09 dB -18.97 dB 2:10 02-Schubert: Die Forelle, D. 550
DR13 -1.20 dB -20.02 dB 4:17 03-Schubert: Du bist die Ruh', D. 776
DR11 -3.42 dB -19.96 dB 3:07 04-Schubert: Nacht und Träume, Op. 43 No. 2, D. 827
DR11 -2.46 dB -19.55 dB 1:40 05-24. Du bist wie eine Blume
DR12 -1.20 dB -18.19 dB 1:46 06-3. Die Lotosblume
DR11 -1.20 dB -16.30 dB 2:34 07-1. Widmung
DR12 -1.20 dB -17.24 dB 3:50 08-5. Schöne Wiege meiner Leiden
DR9 -1.20 dB -16.03 dB 3:41 09-2. Die Mainacht - Wann der silberne Mond
DR12 -1.21 dB -17.25 dB 3:25 10-9. Wie bist du, meine Königin
DR12 -2.15 dB -19.47 dB 3:03 11-2. Feldeinsamkeit
DR12 -1.20 dB -18.39 dB 2:53 12-2. Nicht mehr zu dir zu gehen
DR12 -5.33 dB -23.32 dB 4:05 13-4. Morgen!
DR11 -1.20 dB -17.89 dB 3:10 14-8. Allerseelen
DR10 -1.20 dB -14.56 dB 1:56 15-1. Zueignung
DR11 -4.42 dB -20.94 dB 2:52 16-3. Die Nacht
––––––––––––––––––––––––––––––––––––––––

Number of tracks: 16
Official DR value: DR11

Samplerate: 48000 Hz
Channels: 2
Bits per sample: 24
Bitrate: 1295 kbps
Codec: FLAC
================================================================================



Thanks to the Original customer.