Tags
Language
Tags

KISS - Off The Soundboard Tokyo 2001 (2021) [Vinyl Rip, 24/96]

Posted By: pyatak
KISS - Off The Soundboard Tokyo 2001 (2021) [Vinyl Rip, 24/96]

KISS - Off The Soundboard Tokyo 2001 (2021) [Vinyl Rip, 24/96]
Vinil Rip, FLAC (tracks) 24-bit/96 kHz | Front Cover | Time - 02:09:30 minutes | 2,59 GB
Rock, Hard Rock | Label: UMe Direct 2

n June 11, KISS will launch their new official live bootleg series, KISS – Off The Soundboard, with Tokyo 2001, recorded by the band at the Tokyo Dome in Tokyo, Japan on March 13, 2001. This marks the first in a series of upcoming live releases through UMe and will be available as a 3-LP standard black vinyl set, a 2-CD set, digital downloads and available to stream. Off The Soundboard: Tokyo 2001 will also be available as an exclusive 3-LP set pressed on crystal clear vinyl with bone swirl via the Official KISS online store.

Tokyo has always held a special place of importance throughout the KISStory of the band and Off The Soundboard: Tokyo 2001 captures KISS giving the packed 55,000 seat venue the quintessential KISS live experience, direct from the soundboard with such classic anthems as “I Was Made for Lovin’ You,” “Heaven’s On Fire,” “Rock & Roll All Night” and the #7 1976 Billboard hit “Detroit Rock City,” as well as rarities such as “I Still Love You” from 1982’s Creatures Of The Night. The 21-track concert is a celebration of the band’s musical legacy and features co-founders Paul Stanley and Gene Simmons, with Ace Frehley on guitar and Eric Singer on drums.

TRACKLIST

1. KISS - Detroit Rock City
2. KISS - Deuce
3. KISS - Shout It Out Loud
4. KISS - Talk To Me
5. KISS - I Love It Loud
6. KISS - Firehouse
7. KISS - Do You Love Me?
8. KISS - Calling Dr. Love
9. KISS - Heaven's On Fire
10. KISS - Let Me Go, Rock N' Roll
11. KISS - Shock Me
12. KISS - Psycho Circus
13. KISS - Lick It Up
14. KISS - God Of Thunder
15. KISS - Cold Gin
16. KISS - 100,000 Years
17. KISS - Love Gun
18. KISS - I Still Love You
19. KISS - Black Diamond
20. KISS - I Was Made For Lovin' You
21. KISS - Rock And Roll All Nite

Vinyl: Mint
Cleaning: Squeaky Clean Vinyl MKIII
Milty Zerostat Gun
Turntable: Technics SL-1300
Preamp: DJPREII
Cartridge: Ortofon 2M Blue

Original US "Clear & Bone" Pressing


foobar2000 1.6.2 / Dynamic Range Meter 1.1.1
log date: 2021-06-22 14:23:47

––––––––––––––––––––––––––––––––––––––––
Analyzed: KISS / Off The Soundboard: Tokyo 2001
––––––––––––––––––––––––––––––––––––––––

DR Peak RMS Duration Track
––––––––––––––––––––––––––––––––––––––––
DR11 -0.10 dB -14.40 dB 4:58 01-Detroit Rock City
DR12 -1.51 dB -15.46 dB 5:37 02-Deuce
DR12 -1.32 dB -15.41 dB 3:56 03-Shout It Out Loud
DR12 -1.59 dB -15.32 dB 3:56 04-Talk To Me
DR12 -0.16 dB -14.51 dB 4:39 05-I Love It Loud
DR12 -0.10 dB -14.38 dB 5:13 06-Firehouse
DR12 -1.63 dB -15.09 dB 5:02 07-Do You Love Me?
DR11 -0.28 dB -14.64 dB 4:27 08-Calling Dr. Love
DR11 -0.42 dB -13.83 dB 4:15 09-Heaven's On Fire
DR12 -0.10 dB -15.60 dB 6:53 10-Let Me Go, Rock N' Roll
DR12 -0.73 dB -16.86 dB 13:15 11-Shock Me
DR11 -0.10 dB -13.74 dB 5:54 12-Psycho Circus
DR12 -0.21 dB -14.40 dB 5:52 13-Lick It Up
DR12 -0.40 dB -15.30 dB 9:39 14-God Of Thunder
DR12 -0.38 dB -14.20 dB 6:48 15-Cold Gin
DR12 -0.17 dB -15.63 dB 10:21 16-100,000 Years
DR11 -0.10 dB -13.44 dB 4:43 17-Love Gun
DR12 -4.69 dB -21.55 dB 4:15 18-I Still Love You
DR12 -0.10 dB -15.45 dB 7:02 19-Black Diamond
DR11 -0.82 dB -14.70 dB 6:04 20-I Was Made For Lovin' You
DR12 -0.78 dB -15.08 dB 6:43 21-Rock And Roll All Nite
––––––––––––––––––––––––––––––––––––––––

Number of tracks: 21
Official DR value: DR12

Samplerate: 96000 Hz
Channels: 2
Bits per sample: 24
Bitrate: 2867 kbps
Codec: FLAC
================================================================================



Thanks to the Original customer.