Kaori Uemura - Yuu - Gentleness and Melancholy (2021) [Official Digital Download 24/96]

Posted By: pyatak
Kaori Uemura - Yuu - Gentleness and Melancholy (2021) [Official Digital Download 24/96]

Kaori Uemura - Yuu - Gentleness and Melancholy (2021) [Official Digital Download 24/96]
FLAC (tracks) 24-bit/96 kHz | Front Cover | Time - 67:07 minutes | 1,31 GB
Classical | Label: Ramée, Official Digital Download

Music for a while / Shall all your cares beguile. In this famous song, Purcell invokes the power of music to soothe at least temporarily our pain and suffering. But do we really want to be soothed? Or do we prefer to cultivate our melancholy, in the company of Michel Lambert: No, I sing not to charm away my sadness, but rather to maintain it? In the St John Passion, Bach associates the funereal sweetness of the viol with the death of Christ. Like him, many other composers have chosen the instrument to evoke mourning. The pieces recorded on this album form a frame of melancholy music, just as the Japanese character (Yuu) expresses the gentleness of a person who stands next to someone who is sad. Through the vector of these melancholy pieces, the Japanese gambist Kaori Uemura makes her viol sing to maintain, but also to console sadness.

TRACKLIST

01. Kaori Uemura - Hume: The Spirit of Gambo
02. Kaori Uemura - Hume: Captaine Humes Pavan
03. Kaori Uemura - Hume: Love's Farewell
04. Kaori Uemura - Sainte-Colombe: Prélude
05. Kaori Uemura - fils: Tombeau pour Monsieur de Sainte-Colombe le père
06. Kaori Uemura - fils: Fantaisie en Rondeau
07. Kaori Uemura - Forqueray: Muzette
08. Kaori Uemura - Marais: Chaconne (Premier Livre)
09. Kaori Uemura - Forqueray: La Léon
10. Kaori Uemura - Marais: Le Badinage
11. Kaori Uemura - Abel: Solo in D Minor WKO205
12. Kaori Uemura - Abel: Solo in D Minor WKO208
13. Kaori Uemura - Telemann: Fantasia 7 in G Minor TWV 40:32: I. Andante
14. Kaori Uemura - Telemann: Fantasia 7 in G Minor TWV 40:32: II. Vivace
15. Kaori Uemura - Telemann: Fantasia 7 in G Minor TWV 40:32: III. Allegro
16. Kaori Uemura - Marais: Les voix humaines

foobar2000 1.6.2 / Dynamic Range Meter 1.1.1
log date: 2021-01-14 09:57:33

––––––––––––––––––––––––––––––––––––––––
Analyzed: Kaori Uemura / Yuu: Gentleness and Melancholy
––––––––––––––––––––––––––––––––––––––––

DR Peak RMS Duration Track
––––––––––––––––––––––––––––––––––––––––
DR12 -0.10 dB -15.55 dB 2:51 01-Hume: The Spirit of Gambo
DR12 -0.10 dB -16.06 dB 4:02 02-Hume: Captaine Humes Pavan
DR12 -0.89 dB -16.56 dB 2:11 03-Hume: Love's Farewell
DR10 -0.10 dB -13.92 dB 3:32 04-Sainte-Colombe: Prélude
DR12 -0.10 dB -15.72 dB 14:11 05-fils: Tombeau pour Monsieur de Sainte-Colombe le père
DR12 -1.01 dB -16.95 dB 2:17 06-fils: Fantaisie en Rondeau
DR13 -2.78 dB -20.06 dB 2:24 07-Forqueray: Muzette
DR11 -0.10 dB -14.89 dB 7:06 08-Marais: Chaconne (Premier Livre)
DR12 -0.42 dB -18.43 dB 4:54 09-Forqueray: La Léon
DR12 -0.10 dB -15.70 dB 4:49 10-Marais: Le Badinage
DR11 -1.43 dB -16.46 dB 2:07 11-Abel: Solo in D Minor WKO205
DR13 -0.10 dB -16.38 dB 5:27 12-Abel: Solo in D Minor WKO208
DR13 -1.09 dB -17.41 dB 4:00 13-Telemann: Fantasia 7 in G Minor TWV 40:32: I. Andante
DR11 -0.10 dB -16.22 dB 1:27 14-Telemann: Fantasia 7 in G Minor TWV 40:32: II. Vivace
DR12 -0.54 dB -17.63 dB 1:50 15-Telemann: Fantasia 7 in G Minor TWV 40:32: III. Allegro
DR11 -1.94 dB -19.52 dB 4:01 16-Marais: Les voix humaines
––––––––––––––––––––––––––––––––––––––––

Number of tracks: 16
Official DR value: DR12

Samplerate: 96000 Hz
Channels: 2
Bits per sample: 24
Bitrate: 2642 kbps
Codec: FLAC
================================================================================



Thanks to the Original customer.