Tags
Language
Tags

Keenan Meyer - The Alchemy of Living (2021) [Official Digital Download 24/96]

Posted By: pyatak
Keenan Meyer - The Alchemy of Living (2021) [Official Digital Download 24/96]

Keenan Meyer - The Alchemy of Living (2021) [Official Digital Download 24/96]
FLAC (tracks) 24-bit/96 kHz | Front Cover | Time - 64:04 minutes | 1,13 GB
Jazz | Label: BandaBanda Agency, Official Digital Download

South African pianist, Keenan Meyer, makes his professional music debut with 'Komani' featuring Tshepo Tsotetsi, ahead of the release of his debut 'The Alchemy of Living' album.

South African pianist and independent artist, Keenan Meyer, has recently released his debut track "Komani" featuring saxophonist Tshepo Tsotetsi. The track appears on his upcoming debut album titled The Alchemy of Living, a 12-track project, which features fellow artists Sthembiso Bhengu, Keorapetse Kolwane as well as talented South African jazz musician, Zoë Modiga. Impressively, the inimitable Grammy award-winning American producer, Qmillion, is behind the mixing and mastering of this musical offering.

TRACKLIST

1. Keenan Meyer - Santa Theresa
2. Keenan Meyer - The Mountain
3. Keenan Meyer - Komani
4. Keenan Meyer - Moonchild
5. Keenan Meyer - Sederburg Avenue
6. Keenan Meyer - Healing
7. Keenan Meyer - Christopher's Lullaby
8. Keenan Meyer - Ikigai
9. Keenan Meyer - Peace of Mind
10. Keenan Meyer - Majoro's Meditation
11. Keenan Meyer - Oxamu
12. Keenan Meyer - Eloi

foobar2000 1.6.2 / Dynamic Range Meter 1.1.1
log date: 2021-06-30 18:15:43

––––––––––––––––––––––––––––––––––––––––
Analyzed: Keenan Meyer / The Alchemy of Living
––––––––––––––––––––––––––––––––––––––––

DR Peak RMS Duration Track
––––––––––––––––––––––––––––––––––––––––
DR10 -1.30 dB -14.88 dB 5:47 01-Santa Theresa
DR12 -1.78 dB -18.47 dB 3:38 02-The Mountain
DR11 -1.75 dB -17.18 dB 6:44 03-Komani
DR9 -1.20 dB -13.59 dB 6:26 04-Moonchild
DR12 -1.81 dB -18.98 dB 3:32 05-Sederburg Avenue
DR8 -1.90 dB -12.78 dB 5:24 06-Healing
DR9 -1.75 dB -15.09 dB 6:07 07-Christopher's Lullaby
DR10 -2.12 dB -16.80 dB 4:31 08-Ikigai
DR10 -1.30 dB -13.70 dB 5:05 09-Peace of Mind
DR10 -1.60 dB -14.69 dB 6:41 10-Majoro's Meditation
DR9 -1.74 dB -12.96 dB 5:08 11-Oxamu
DR15 -1.81 dB -24.69 dB 5:06 12-Eloi
––––––––––––––––––––––––––––––––––––––––

Number of tracks: 12
Official DR value: DR10

Samplerate: 96000 Hz
Channels: 2
Bits per sample: 24
Bitrate: 1970 kbps
Codec: FLAC
================================================================================



Thanks to the Original customer.