Tags
Language
Tags

Kelly Jones - Don't Let The Devil Take Another Day (2020) [Official Digital Download]

Posted By: pyatak
Kelly Jones - Don't Let The Devil Take Another Day (2020) [Official Digital Download]

Kelly Jones - Don't Let The Devil Take Another Day (2020) [Official Digital Download]
FLAC (tracks) 24-bit/48 kHz | Front Cover | Time - 01:51:06 minutes | 1,3 GB
Rock | Label: Parlophone, Official Digital Download

Barely a year after Stereophonics last no. 1 album 'Kind', 'Phonics frontman Kelly Jones releases this 21-track collection featuring reinterpretations/re-workings of 18 Stereophonics tracks (classics and deep cuts), plus two songs from Kelly's 2007 solo album 'Only the Names Have Been Changed' and an emotional take on Kris Kristofferson's timeless classic, 'Help Me Make It Through the Night'.

TRACKLIST

1. Kelly Jones - Hurry Up And Wait (Don’t Let The Devil Take Another Day Version)
2. Kelly Jones - You're My Star (Don’t Let The Devil Take Another Day Version)
3. Kelly Jones - Suzy (Don’t Let The Devil Take Another Day Version)
4. Kelly Jones - Katie (Don’t Let The Devil Take Another Day Version)
5. Kelly Jones - I Wanna Get Lost With You (Don’t Let The Devil Take Another Day Version)
6. Kelly Jones - Help Me Make It Through The Night (Don’t Let The Devil Take Another Day Version)
7. Kelly Jones - I Stopped To Fill My Car Up (Don’t Let The Devil Take Another Day Version)
8. Kelly Jones - Before Anyone Knew Our Name (Don’t Let The Devil Take Another Day Version)
9. Kelly Jones - Mr Writer (Don’t Let The Devil Take Another Day Version)
10. Kelly Jones - Rewind (Don’t Let The Devil Take Another Day Version)
11. Kelly Jones - Local Boy In The Photograph (Don’t Let The Devil Take Another Day Version)
12. Kelly Jones - Feel (Don’t Let The Devil Take Another Day Version)
13. Kelly Jones - Into The World (Don’t Let The Devil Take Another Day Version)
14. Kelly Jones - This Life Ain’t Easy (But It’s The One That We All Got) [Don’t Let The Devil Take Another Day Version]
15. Kelly Jones - Boy On A Bike (Don’t Let The Devil Take Another Day Version)
16. Kelly Jones - No-one's Perfect (Don’t Let The Devil Take Another Day Version)
17. Kelly Jones - Show Me How (Don’t Let The Devil Take Another Day Version)
18. Kelly Jones - Maybe Tomorrow (Don’t Let The Devil Take Another Day Version)
19. Kelly Jones - Traffic (Don’t Let The Devil Take Another Day Version)
20. Kelly Jones - Just Looking (Don’t Let The Devil Take Another Day Version)
21. Kelly Jones - Dakota (Don’t Let The Devil Take Another Day Version)

foobar2000 1.6.1 / Dynamic Range Meter 1.1.1
log date: 2020-12-03 16:20:11

––––––––––––––––––––––––––––––––––––––––
Analyzed: Kelly Jones / Don't Let The Devil Take Another Day
––––––––––––––––––––––––––––––––––––––––

DR Peak RMS Duration Track
––––––––––––––––––––––––––––––––––––––––
DR9 -0.11 dB -13.71 dB 8:50 01-Hurry Up And Wait (Don’t Let The Devil Take Another Day Version)
DR7 0.00 dB -9.49 dB 6:06 02-You're My Star (Don’t Let The Devil Take Another Day Version)
DR8 -0.23 dB -11.67 dB 5:55 03-Suzy (Don’t Let The Devil Take Another Day Version)
DR6 0.00 dB -8.21 dB 3:54 04-Katie (Don’t Let The Devil Take Another Day Version)
DR7 0.00 dB -10.00 dB 4:28 05-I Wanna Get Lost With You (Don’t Let The Devil Take Another Day Version)
DR8 0.00 dB -13.71 dB 4:07 06-Help Me Make It Through The Night (Don’t Let The Devil Take Another Day Version)
DR6 0.00 dB -9.74 dB 6:17 07-I Stopped To Fill My Car Up (Don’t Let The Devil Take Another Day Version)
DR11 -0.82 dB -17.53 dB 9:45 08-Before Anyone Knew Our Name (Don’t Let The Devil Take Another Day Version)
DR6 0.00 dB -8.47 dB 5:18 09-Mr Writer (Don’t Let The Devil Take Another Day Version)
DR11 -0.28 dB -14.28 dB 5:57 10-Rewind (Don’t Let The Devil Take Another Day Version)
DR9 -0.65 dB -14.07 dB 5:41 11-Local Boy In The Photograph (Don’t Let The Devil Take Another Day Version)
DR6 0.00 dB -8.20 dB 4:07 12-Feel (Don’t Let The Devil Take Another Day Version)
DR7 0.00 dB -9.97 dB 4:34 13-Into The World (Don’t Let The Devil Take Another Day Version)
DR7 0.00 dB -12.14 dB 6:20 14-This Life Ain’t Easy (But It’s The One That We All Got) [Don’t Let The Devil Take Another Day Version]
DR10 -0.31 dB -12.90 dB 3:00 15-Boy On A Bike (Don’t Let The Devil Take Another Day Version)
DR9 -0.23 dB -12.29 dB 4:15 16-No-one's Perfect (Don’t Let The Devil Take Another Day Version)
DR7 0.00 dB -9.62 dB 4:29 17-Show Me How (Don’t Let The Devil Take Another Day Version)
DR9 -0.20 dB -11.86 dB 4:09 18-Maybe Tomorrow (Don’t Let The Devil Take Another Day Version)
DR8 0.00 dB -9.74 dB 5:04 19-Traffic (Don’t Let The Devil Take Another Day Version)
DR8 0.00 dB -11.18 dB 3:31 20-Just Looking (Don’t Let The Devil Take Another Day Version)
DR6 0.00 dB -8.06 dB 5:19 21-Dakota (Don’t Let The Devil Take Another Day Version)
––––––––––––––––––––––––––––––––––––––––

Number of tracks: 21
Official DR value: DR8

Samplerate: 48000 Hz
Channels: 2
Bits per sample: 24
Bitrate: 1918 kbps
Codec: FLAC
================================================================================



Thanks to the Original customer.