Keren Ann - Bleue (2019) [Official Digital Download]

Posted By: pyatak
Keren Ann - Bleue (2019) [Official Digital Download]

Keren Ann - Bleue (2019) [Official Digital Download]
FLAC (tracks) 24-bit/44.1 kHz | Front Cover | Time - 42:55 minutes | 468 MB
Pop, Chanson | Label: Polydor, Official Digital Download

"Bleue", le nouvel album de Keren Ann sortira le 15 mars prochain. Un album intimiste, poignant, qui va puiser dans les fonds marins et aquatiques des méandres de l’amour.

Pour parler d’amour, de la perte, du questionnement lié au sentiment amoureux, Keren Ann a donc choisi l’élément liquide…
L’eau, celle de la mer et de ses ressacs puissants, de ses bouillons parfois meurtriers aussi.
L’eau, c’est aussi celle des larmes de peines ou d’émotions qui parfois lavent de toutes les mélancolies.
L’eau, c’est bien sûr celle de la pluie, amie des jours chagrins, et manteau des jours de nuit.
L’eau de la source enfin, qui évoque ici l’énergie des jours heureux, titre de la chanson d’ouverture de ce disque plein et matriciel.

Matriciel car, dès la première écoute on sent confusément que Keren Ann fait parler à la fois le cœur de son ventre, et l’instinct d’une femme en prière pour rester debout, même lorsque l’amour la tue comme un poison lent.

Elle en fait une chanson en forme de mantra, sublime et déchirant, comme pour exorciser une peine.

TRACKLIST

1. Les jours heureux (04:13)
2. Bleu (04:00)
3. Le fleuve doux (04:18)
4. Nager la nuit (04:55)
5. Sous l'eau (04:45)
6. Ton île prison (04:17)
7. Odessa, odyssée (04:46)
8. Le goût d'inachevé (feat. David Byrne) (03:56)
9. La mauvaise fortune (03:13)
10. Le goût était acide (04:32)


foobar2000 1.3.16 / Dynamic Range Meter 1.1.1
log date: 2019-03-15 15:00:56

––––––––––––––––––––––––––––––––––––––––
Analyzed: Keren Ann / Bleue
––––––––––––––––––––––––––––––––––––––––

DR Peak RMS Duration Track
––––––––––––––––––––––––––––––––––––––––
DR7 -0.20 dB -9.89 dB 4:14 01-Les jours heureux
DR6 -0.20 dB -8.40 dB 4:00 02-Bleu
DR6 -0.20 dB -8.10 dB 4:19 03-Le fleuve doux
DR6 -0.20 dB -8.18 dB 4:55 04-Nager la nuit
DR5 -0.20 dB -9.57 dB 4:46 05-Sous l'eau
DR7 -0.20 dB -8.59 dB 4:17 06-Ton île prison
DR6 -0.20 dB -7.73 dB 4:47 07-Odessa, odyssée
DR7 -0.20 dB -9.50 dB 3:56 08-Le goût d'inachevé
DR6 -0.20 dB -8.39 dB 3:13 09-La mauvaise fortune
DR7 -0.20 dB -8.40 dB 4:32 10-Le goût était acide
––––––––––––––––––––––––––––––––––––––––

Number of tracks: 10
Official DR value: DR6

Samplerate: 44100 Hz
Channels: 2
Bits per sample: 24
Bitrate: 1512 kbps
Codec: FLAC
================================================================================



Thanks to the Original customer.