King Crimson - Heroes (Live in Europe 2016) - EP (2017) [Official Digital Download]

Posted By: SERTiL
King Crimson - Heroes (Live in Europe 2016) - EP (2017) [Official Digital Download]

King Crimson - Heroes (Live in Europe 2016) - EP (2017)
FLAC (tracks) 24-bit/48 kHz | Time - 28:26 minutes | 311 MB
Studio Master, Official Digital Download | Artwork: Digital Booklet

DGM and Panegyric are proud to present King Crimson’s Heroes EP – recorded live on the European tour of 2016. The title track sees Robert Fripp reprise the unforgettable guitar role he created for the original David Bowie studio recording in the same city in 1977, particularly poignant in the year of Bowie's death. Also featured on the EP are a ten minutes recording of Easy Money (Paris), a song that varies in length and solos from night to night and is always a fan favourite, an edited version (featuring the “song section”) of Crim Classic Starless often a set closer, always a stand-out moment and a recording of the three drummers’ showpiece The Hell Hounds of Krim (both from Vienna) – all previously unreleased live recordings.

The EP is completed with a ‘radio edit’ of Heroes.

A full live album, recorded on the 2016 European tour will be issued in September 2017.

Tracklist:
1. Heroes 04:37
2. Easy Money 10:00
3. Starless (Edit) 04:26
4. Hell Hounds of Krim 03:35
5. Heroes (Radio Edit) 03:50

foobar2000 1.3.7 / Dynamic Range Meter 1.1.1
log date: 2019-05-15 17:09:10

––––––––––––––––––––––––––––––––––––––––
Analyzed: King Crimson / Heroes (Live in Europe 2016) - EP
––––––––––––––––––––––––––––––––––––––––

DR Peak RMS Duration Track
––––––––––––––––––––––––––––––––––––––––
DR7 -3.11 dB -10.98 dB 4:37 01-Heroes
DR7 -3.67 dB -13.36 dB 10:00 02-Easy Money
DR8 -3.71 dB -13.80 dB 4:26 03-Starless (Edit)
DR9 -4.08 dB -15.83 dB 3:35 04-Hell Hounds of Krim
DR7 -2.66 dB -10.69 dB 3:50 05-Heroes (Radio Edit)
––––––––––––––––––––––––––––––––––––––––

Number of tracks: 5
Official DR value: DR7

Samplerate: 48000 Hz
Channels: 2
Bits per sample: 24
Bitrate: 1734 kbps
Codec: FLAC
================================================================================


Thanks to the Original customer.