King Crimson - Live In Chicago, 28 June 2017 (Collector's Club Special Edition) (2017) [Official Digital Download 24/96]

Posted By: SERTiL
King Crimson - Live In Chicago, 28 June 2017 (Collector's Club Special Edition) (2017) [Official Digital Download 24/96]

King Crimson - Live In Chicago, 28 June 2017 (Collector's Club Special Edition) (2017)
FLAC (tracks) 24-bit/96 kHz | Time - 155:50 minutes | 3.21 GB
Studio Master, Official Digital Download | Artwork: Digital Booklet

Two CD set, taken from the band’s most recent US tour. Media-book presentation with 24 pages booklet featuring photography by Tony Levin & David Singleton. Featuring many iconic King Crimson pieces performed live by this line-up for the first time – some being played live for the first time ever, including: Islands, The Lizard Suite, The Errors, Fallen Angel, Cirkus & more.

Tracklist:

Disc 1 (01:13:34)
1. Bellscape & Orchestral Werning (02:29)
2. Larks' Tongues In Aspic, Part One (09:27)
3. Neurotica (04:54)
4. The Errors (04:54)
5. Cirkus (07:31)
6. The Lizard Suite (11:21)
7. Fallen Angel (06:01)
8. Larks' Tongues In Aspic, Part Two (07:08)
9. Islands (09:50)
10. Pictures Of A City (09:59)

Disc 2 (01:22:11)
1. Indiscipline (08:01)
2. The Construkction Of Light (06:20)
3. Easy Money (09:34)
4. The Letters (06:37)
5. Interlude (02:29)
6. Meltdown (04:22)
7. Radical Action II (02:28)
8. Level Five (07:03)
9. Starless (14:55)
10. Heroes (04:27)
11. 21st Century Schizoid Man (15:55)

foobar2000 1.3.7 / Dynamic Range Meter 1.1.1
log date: 2018-07-16 14:14:02

––––––––––––––––––––––––––––––––––––––––
Analyzed: King Crimson / Live In Chicago, 28 June 2017 (Collector's Club Special Edition)
––––––––––––––––––––––––––––––––––––––––

DR Peak RMS Duration Track
––––––––––––––––––––––––––––––––––––––––
DR18 -13.32 dB -38.55 dB 2:30 01-Bellscape & Orchestral Werning (Live in Chicago 28 June 2017)
DR11 -1.40 dB -16.80 dB 9:27 02-Larks’ Tongues in Aspic, Pt. One (Live in Chicago 28 June 2017)
DR10 -1.49 dB -14.00 dB 4:56 03-Neurotica (Live in Chicago 28 June 2017)
DR11 -1.75 dB -14.10 dB 4:54 04-The Errors (Live in Chicago 28 June 2017)
DR11 -1.22 dB -14.54 dB 7:34 05-Cirkus (Live in Chicago 28 June 2017)
DR10 -1.24 dB -14.68 dB 11:21 06-The Lizard Suite (Live in Chicago 28 June 2017)
DR10 -0.69 dB -13.21 dB 6:00 07-Fallen Angel (Live in Chicago 28 June 2017)
DR10 -1.32 dB -13.17 dB 7:10 08-Larks’ Tongues in Aspic, Pt. Two (Live in Chicago 28 June 2017)
DR12 -1.33 dB -18.61 dB 9:48 09-Islands (Live in Chicago 28 June 2017)
DR10 -1.19 dB -13.68 dB 10:00 10-Pictures of a City (Live in Chicago 28 June 2017)
DR9 -0.50 dB -13.34 dB 8:02 11-Indiscipline (Live in Chicago 28 June 2017)
DR12 -0.44 dB -14.18 dB 6:20 12-The ConstruKction of Light (Live in Chicago 28 June 2017)
DR10 -0.34 dB -13.71 dB 9:33 13-Easy Money (Live in Chicago 28 June 2017)
DR11 -0.24 dB -15.95 dB 6:45 14-The Letters (Live in Chicago 28 June 2017)
DR12 -9.26 dB -27.80 dB 2:24 15-Interlude (Live in Chicago 28 June 2017)
DR10 -1.37 dB -13.54 dB 4:23 16-Meltdown (Live in Chicago 28 June 2017)
DR10 -0.92 dB -12.12 dB 2:28 17-Radical Action II (Live in Chicago 28 June 2017)
DR10 -0.82 dB -12.38 dB 7:04 18-Level Five (Live in Chicago 28 June 2017)
DR10 -0.70 dB -14.97 dB 14:55 19-Starless (Live in Chicago 28 June 2017)
DR10 -1.00 dB -11.60 dB 4:29 20-Heroes (Live in Chicago 28 June 2017)
DR10 -0.84 dB -12.95 dB 15:55 21-21st Century Schizoid Man (Live in Chicago 28 June 2017)
––––––––––––––––––––––––––––––––––––––––

Number of tracks: 21
Official DR value: DR11

Samplerate: 96000 Hz
Channels: 2
Bits per sample: 24
Bitrate: 2902 kbps
Codec: FLAC
================================================================================


Thanks to the Original customer.