Tags
Language
Tags

King Gizzard & The Lizard Wizard - Live In London '19 (2020) [Official Digital Download]

Posted By: pyatak
King Gizzard & The Lizard Wizard - Live In London '19 (2020) [Official Digital Download]

King Gizzard & The Lizard Wizard - Live In London '19 (2020) [Official Digital Download]
FLAC (tracks) 24-bit/44.1 kHz | Front Cover | Time - 89:59 minutes | 1,05 GB
Rock | Label: kinggizzard.bandcamp.com, Official Digital Download

Few bands are as creative or as prolific as Australia’s King Gizzard and the Lizard Wizard. Aside from dropping albums left and right, they’ve also decided to let fans and indie labels bootleg their music. A spot on their Bandcamp and their website give details on how to go about the process. One of the releases up for grabs is a live album Live In London ’19. The seventeen track album was recorded in 2019 at Alexandra Palace in London, UK.

TRACKLIST

01. King Gizzard & the Lizard Wizard - Evil Star (Live In London 19)
02. King Gizzard & the Lizard Wizard - Self-Immolate (Live In London 19)
03. King Gizzard & the Lizard Wizard - Mars For The Rich (Live In London 19)
04. King Gizzard & the Lizard Wizard - I m In Your Mind (Live In London 19)
05. King Gizzard & the Lizard Wizard - I m Not In Your Mind (Live In London 19)
06. King Gizzard & the Lizard Wizard - Cellophane (Live In London 19)
07. King Gizzard & the Lizard Wizard - The Great Chain Of Being (Live In London 19)
08. King Gizzard & the Lizard Wizard - Plastic Boogie (Live In London 19)
09. King Gizzard & the Lizard Wizard - Crumbling Castle (Live In London 19)
10. King Gizzard & the Lizard Wizard - This Thing (Live In London _19)
11. King Gizzard & the Lizard Wizard - Boogieman Sam (Live In London 19)
12. King Gizzard & the Lizard Wizard - Mr. Beat (Live In London 19)
13. King Gizzard & the Lizard Wizard - Evil Death Roll (Live In London 19)
14. King Gizzard & the Lizard Wizard - Venusian 2 (Live In London 19)
15. King Gizzard & the Lizard Wizard - Planet B (Live In London 19)
16. King Gizzard & the Lizard Wizard - Rattlesnake (Live In London 19)
17. King Gizzard & the Lizard Wizard - Float Along - Fill Your Lungs (Live In London 19)

foobar2000 1.6.2 / Dynamic Range Meter 1.1.1
log date: 2020-12-31 16:56:00

––––––––––––––––––––––––––––––––––––––––
Analyzed: King Gizzard & the Lizard Wizard / Live In London '19
––––––––––––––––––––––––––––––––––––––––

DR Peak RMS Duration Track
––––––––––––––––––––––––––––––––––––––––
DR5 0.00 dB -8.64 dB 2:12 01-Evil Star (Live In London 19)
DR5 0.00 dB -6.59 dB 5:54 02-Self-Immolate (Live In London 19)
DR6 0.00 dB -6.43 dB 4:03 03-Mars For The Rich (Live In London 19)
DR5 0.00 dB -6.34 dB 3:37 04-I m In Your Mind (Live In London 19)
DR6 0.00 dB -6.83 dB 1:59 05-I m Not In Your Mind (Live In London 19)
DR6 0.00 dB -6.69 dB 3:36 06-Cellophane (Live In London 19)
DR6 0.00 dB -7.51 dB 4:38 07-The Great Chain Of Being (Live In London 19)
DR6 0.00 dB -8.16 dB 3:38 08-Plastic Boogie (Live In London 19)
DR6 0.00 dB -8.71 dB 10:22 09-Crumbling Castle (Live In London 19)
DR6 0.00 dB -8.57 dB 6:19 10-This Thing (Live In London _19)
DR7 0.00 dB -8.20 dB 6:15 11-Boogieman Sam (Live In London 19)
DR7 0.00 dB -8.54 dB 4:40 12-Mr. Beat (Live In London 19)
DR6 0.00 dB -7.54 dB 8:07 13-Evil Death Roll (Live In London 19)
DR5 0.00 dB -6.18 dB 4:00 14-Venusian 2 (Live In London 19)
DR6 0.00 dB -6.62 dB 4:21 15-Planet B (Live In London 19)
DR7 0.00 dB -8.56 dB 6:50 16-Rattlesnake (Live In London 19)
DR7 0.00 dB -10.81 dB 9:27 17-Float Along - Fill Your Lungs (Live In London 19)
––––––––––––––––––––––––––––––––––––––––

Number of tracks: 17
Official DR value: DR6

Samplerate: 44100 Hz
Channels: 2
Bits per sample: 24
Bitrate: 1583 kbps
Codec: FLAC
================================================================================



Thanks to the Original customer.