Kitgut Quartet - Tis too late to be wise (2020) [Official Digital Download 24/96]

Posted By: SERTiL
Kitgut Quartet - Tis too late to be wise (2020) [Official Digital Download 24/96]

Kitgut Quartet - Tis too late to be wise (2020)
FLAC (tracks) 24-bit/96 kHz | Time - 53:04 minutes | 994 MB
Studio Master, Official Digital Download | Artwork: Digital Booklet

Liberty, enthusiasm and sharing: that might well be the motto of the Kitgut Quartet (named for the ‘kitgut’ or catgut strings it uses), which brings together four outstanding soloists, all of them members of the leading period-instrument European ensembles.

This first recording, devoted to Haydn and England (Purcell, Locke, Blow), explores the origins of the string quartet via a number of carefully chosen gems. A journey through time with plenty of surprises in store.

Tracklist:
01. 9 Fantasias, Z. 735-43: No. 8. Fantasia a 4 in G Major, Z. 742 (3:20)
02. The History of Timon of Athens, Z. 632: Curtain Tune on a ground (1:58)
03. The Tempest, Z. 631: IV. Curtain Tune (3:56)
04. Consort of Four Parts, Suite No. 2 in D Major: I. Fantazie (3:27)
05. Consort of Four Parts, Suite No. 2 in D Major: II. Courante (0:55)
06. Consort of Four Parts, Suite No. 2 in D Major: III. Ayre (1:38)
07. Consort of Four Parts, Suite No. 2 in D Major: IV. Saraband (1:23)
08. String Quartet in D Major, Op. 71 No. 2, Hob. III:70: I. Adagio (6:08)
09. String Quartet in D Major, Op. 71 No. 2, Hob. III:70: II. Adagio cantabile (5:01)
10. String Quartet in D Major, Op. 71 No. 2, Hob. III:70: III. Menuetto. Allegro - Trio (1:55)
11. String Quartet in D Major, Op. 71 No. 2, Hob. III:70: IV. Finale. Allegretto (3:24)
12. 9 Fantasias, Z. 735-43: No. 2. Fantasia a 4 in B-Flat Major, Z. 736 (2:57)
13. King Arthur, Z. 628: Fairest Isle (2:20)
14. Consort of Four Parts, Suite No. 1 in D Minor: II. Courante (1:04)
15. Consort of Four Parts, Suite No. 1 in D Minor: III. Ayre (1:43)
16. King Arthur, Z. 628: Hornpipe (1:22)
17. Pavan in G Minor, Z. 752 (4:41)
18. Chacony in G Minor, Z. 730 (3:58)
19. Venus and Adonis, Act II: Act Tune (2:03)

foobar2000 1.3.7 / Dynamic Range Meter 1.1.1
log date: 2020-01-14 21:56:06

––––––––––––––––––––––––––––––––––––––––
Analyzed: Kitgut Quartet / Tis too late to be wise
––––––––––––––––––––––––––––––––––––––––

DR Peak RMS Duration Track
––––––––––––––––––––––––––––––––––––––––
DR13 -2.31 dB -19.04 dB 3:20 01-9 Fantasias, Z. 735-43: No. 8. Fantasia a 4 in G Major, Z. 742
DR12 -2.63 dB -18.20 dB 1:58 02-The History of Timon of Athens, Z. 632: Curtain Tune on a ground
DR13 -1.46 dB -19.97 dB 3:56 03-The Tempest, Z. 631: IV. Curtain Tune
DR13 -2.75 dB -20.30 dB 3:27 04-Consort of Four Parts, Suite No. 2 in D Major: I. Fantazie
DR14 -3.11 dB -20.52 dB 0:55 05-Consort of Four Parts, Suite No. 2 in D Major: II. Courante
DR12 -2.98 dB -18.81 dB 1:38 06-Consort of Four Parts, Suite No. 2 in D Major: III. Ayre
DR13 -3.24 dB -20.34 dB 1:23 07-Consort of Four Parts, Suite No. 2 in D Major: IV. Saraband
DR14 -1.78 dB -20.85 dB 6:08 08-String Quartet in D Major, Op. 71 No. 2, Hob. III:70: I. Adagio
DR16 -0.41 dB -22.11 dB 5:01 09-String Quartet in D Major, Op. 71 No. 2, Hob. III:70: II. Adagio cantabile
DR13 -5.21 dB -22.21 dB 1:55 10-String Quartet in D Major, Op. 71 No. 2, Hob. III:70: III. Menuetto. Allegro - Trio
DR15 -0.41 dB -20.90 dB 3:24 11-String Quartet in D Major, Op. 71 No. 2, Hob. III:70: IV. Finale. Allegretto
DR13 -3.83 dB -20.35 dB 2:57 12-9 Fantasias, Z. 735-43: No. 2. Fantasia a 4 in B-Flat Major, Z. 736
DR12 -6.81 dB -23.62 dB 2:20 13-King Arthur, Z. 628: Fairest Isle
DR12 -4.94 dB -20.60 dB 1:04 14-Consort of Four Parts, Suite No. 1 in D Minor: II. Courante
DR12 -2.99 dB -19.83 dB 1:43 15-Consort of Four Parts, Suite No. 1 in D Minor: III. Ayre
DR13 -3.44 dB -24.50 dB 1:22 16-King Arthur, Z. 628: Hornpipe
DR14 -2.77 dB -20.65 dB 4:41 17-Pavan in G Minor, Z. 752
DR12 -2.51 dB -19.46 dB 3:58 18-Chacony in G Minor, Z. 730
DR13 -3.97 dB -21.59 dB 2:03 19-Venus and Adonis, Act II: Act Tune
––––––––––––––––––––––––––––––––––––––––

Number of tracks: 19
Official DR value: DR13

Samplerate: 96000 Hz
Channels: 2
Bits per sample: 24
Bitrate: 2599 kbps
Codec: FLAC
================================================================================


Thanks to the Original customer.