Tags
Language
Tags

Koven - Reality Reach (2017)

Posted By: v3122
Koven - Reality Reach (2017)

Koven - Reality Reach (2017)
FLAC (Tracks) 24-bit/44.1, 48 kHz | Official Digital Download | Time: 00:18:11
Label: Monstercat | Artwork: Front | ~ 254 Mb
Melodic Midtempo, Dance, Drum & Bass, Drumstep, Dubstep, Electro, Electronic

~ Just an absolutely stellar piece of music. Very versatile range of tunes and everything feels heavy yet heartfelt. – itsnotgami ~

Koven - Reality Reach (2017):

Tracklist:

1. Koven - Agonic (Intro) [00:50]
2. Koven - Board Game [03:22]
3. Koven - Do You [03:25]
4. Koven - My Love [03:48]
5. Koven - Settled [03:21]
6. Koven - Voices [03:23]

foobar2000 1.6.9 / Dynamic Range Meter 1.1.1
log date: 2022-05-02 08:59:08

––––––––––––––––––––––––––––––––––––––––
Analyzed: Koven / Reality Reach EP
––––––––––––––––––––––––––––––––––––––––

DR Peak RMS Duration Track
––––––––––––––––––––––––––––––––––––––––
DR3 0.00 dB -4.08 dB 3:22 03-Board Game
DR5 0.00 dB -6.95 dB 3:21 05-Settled
––––––––––––––––––––––––––––––––––––––––

Number of tracks: 2
Official DR value: DR4

Samplerate: 44100 Hz
Channels: 2
Bits per sample: 24
Bitrate: 1725 kbps
Codec: FLAC
================================================================================

––––––––––––––––––––––––––––––––––––––––
Analyzed: Koven / Reality Reach EP
––––––––––––––––––––––––––––––––––––––––

DR Peak RMS Duration Track
––––––––––––––––––––––––––––––––––––––––
DR9 0.00 dB -11.65 dB 0:50 01-Agonic (Intro)
DR4 0.00 dB -6.01 dB 3:26 02-Do You
DR3 0.00 dB -5.45 dB 3:48 04-My Love
DR4 0.00 dB -6.32 dB 3:23 06-Voices
––––––––––––––––––––––––––––––––––––––––

Number of tracks: 4
Official DR value: DR5

Samplerate: 48000 Hz
Channels: 2
Bits per sample: 24
Bitrate: 1906 kbps
Codec: FLAC

All thanks go to the original releaser

Download Koven - Reality Reach (2017):