Tags
Language
Tags
June 2024
Su Mo Tu We Th Fr Sa
26 27 28 29 30 31 1
2 3 4 5 6 7 8
9 10 11 12 13 14 15
16 17 18 19 20 21 22
23 24 25 26 27 28 29
30 1 2 3 4 5 6

Kristoffer Kompen - SOLO (2023) [Official Digital Download]

Posted By: pyatak
Kristoffer Kompen - SOLO (2023) [Official Digital Download]

Kristoffer Kompen - SOLO (2023) [Official Digital Download]
FLAC (tracks) 24-bit/48 kHz | Front Cover | Time - 42:58 minutes | 396 MB
Jazz | Studio Master, Official Digital Download

Kompen studied music and music education at the Norwegian Academy of Music (2005–11), and also attended the Agder Musikkonservatorium in Kristiansand (2004/2005) and Kungliga Musikhögskolan in Stockholm (2007/2008). He has toured several times with Rikskonsertene, various big bands and ensembles, theater productions and a variety of bands in jazz and related music. Compensation has been performed in numerous occasions, including with Kringkastingsorkesteret in Den Norske Opera, August 2011.

TRACKLIST

1. Kristoffer Kompen - Sundown
2. Kristoffer Kompen - All The Things You Are
3. Kristoffer Kompen - I Surrender Dear
4. Kristoffer Kompen - Beau Koo Jack
5. Kristoffer Kompen - Piggy
6. Kristoffer Kompen - Sorrows
7. Kristoffer Kompen - Tea For Two
8. Kristoffer Kompen - After Youre Gone
9. Kristoffer Kompen - Body And Soul
10. Kristoffer Kompen - Darn That Dream

foobar2000 1.6.2 / Dynamic Range Meter 1.1.1
log date: 2023-12-01 20:17:45

––––––––––––––––––––––––––––––––––––––––
Analyzed: Kristoffer Kompen / SOLO
––––––––––––––––––––––––––––––––––––––––

DR Peak RMS Duration Track
––––––––––––––––––––––––––––––––––––––––
DR11 -0.11 dB -13.24 dB 3:19 01-Sundown
DR11 -0.11 dB -13.86 dB 4:15 02-All The Things You Are
DR12 -0.12 dB -15.14 dB 4:32 03-I Surrender Dear
DR12 -0.11 dB -14.70 dB 3:16 04-Beau Koo Jack
DR11 -0.12 dB -14.86 dB 3:55 05-Piggy
DR8 -0.12 dB -11.70 dB 5:40 06-Sorrows
DR11 -0.11 dB -14.66 dB 3:13 07-Tea For Two
DR10 -0.11 dB -12.03 dB 5:11 08-After Youre Gone
DR11 -0.11 dB -13.53 dB 5:37 09-Body And Soul
DR11 -0.11 dB -14.59 dB 3:59 10-Darn That Dream
––––––––––––––––––––––––––––––––––––––––

Number of tracks: 10
Official DR value: DR11

Samplerate: 48000 Hz
Channels: 2
Bits per sample: 24
Bitrate: 1479 kbps
Codec: FLAC
================================================================================



Thanks to the Original customer.