Tags
Language
Tags

La Gioia Armonica - Per il Salterio (2021) [Official Digital Download 24/96]

Posted By: pyatak
La Gioia Armonica - Per il Salterio (2021) [Official Digital Download 24/96]

La Gioia Armonica - Per il Salterio (2021) [Official Digital Download 24/96]
FLAC (tracks) 24-bit/96 kHz | Front Cover | Time - 78:39 minutes | 1,64 GB
Classical | Label: Ramée, Official Digital Download

Today there are different types of the instrument known in German-speaking countries as the Hackbrett, mainly associated with local traditional music, such as the cimbalom in Eastern Europe, the santūr in Persia, etc. The history of European music has also known moments when this type of instrument was appreciated in art music, thanks especially to its sonority, which predestined it for the so-called ‘sensitive’ (empfindsam) style. This recording is devoted to the salterio, the Italian form of the instrument, for which a considerable number of works were composed in the eighteenth century. Margit Übellacker and Jürgen Banholzer present a selection of recordings of sonatas for salterio and basso continuo. These reflect the galant style of north Italy in the second half of the eighteenth century.

TRACKLIST

01. La Gioia Armonica - I. Vivace assai
02. La Gioia Armonica - II. Grazioso (I)
03. La Gioia Armonica - III. Minuetto Variazione
04. La Gioia Armonica - I. Allegro
05. La Gioia Armonica - II. Largo
06. La Gioia Armonica - III. Minuetto
07. La Gioia Armonica - I. Allegro (I)
08. La Gioia Armonica - II. Cantabile
09. La Gioia Armonica - III. Allegro
10. La Gioia Armonica - I. [Andante]
11. La Gioia Armonica - II. Presto
12. La Gioia Armonica - I. Adagio
13. La Gioia Armonica - II. Allegro
14. La Gioia Armonica - III. Adagio
15. La Gioia Armonica - IV. Giga Allegro
16. La Gioia Armonica - I. Allegro (II)
17. La Gioia Armonica - II. Andante
18. La Gioia Armonica - III. Allegro
19. La Gioia Armonica - Flautino
20. La Gioia Armonica - I. Allegro (III)
21. La Gioia Armonica - II. Grazioso (II)
22. La Gioia Armonica - III. Allegrissimo

foobar2000 1.6.2 / Dynamic Range Meter 1.1.1
log date: 2021-05-24 12:44:28

––––––––––––––––––––––––––––––––––––––––
Analyzed: La Gioia Armonica / Per il Salterio
––––––––––––––––––––––––––––––––––––––––

DR Peak RMS Duration Track
––––––––––––––––––––––––––––––––––––––––
DR12 -0.20 dB -14.76 dB 3:35 01-I. Vivace assai
DR10 -0.20 dB -13.49 dB 2:59 02-II. Grazioso (I)
DR12 -2.26 dB -17.72 dB 4:28 03-III. Minuetto Variazione
DR10 -0.20 dB -12.03 dB 3:08 04-I. Allegro
DR9 -0.20 dB -11.30 dB 5:22 05-II. Largo
DR11 -0.20 dB -13.64 dB 0:50 06-III. Minuetto
DR12 -2.34 dB -17.15 dB 3:22 07-I. Allegro (I)
DR12 -3.99 dB -19.63 dB 2:41 08-II. Cantabile
DR12 -0.61 dB -14.93 dB 2:18 09-III. Allegro
DR10 -0.20 dB -12.61 dB 4:51 10-I. [Andante]
DR12 -0.20 dB -14.56 dB 2:39 11-II. Presto
DR11 -5.34 dB -20.00 dB 3:15 12-I. Adagio
DR11 -3.44 dB -16.66 dB 2:44 13-II. Allegro
DR13 -2.96 dB -18.79 dB 6:43 14-III. Adagio
DR11 -1.25 dB -15.27 dB 2:52 15-IV. Giga Allegro
DR12 -0.20 dB -14.45 dB 4:41 16-I. Allegro (II)
DR14 -3.75 dB -20.40 dB 4:25 17-II. Andante
DR13 -0.20 dB -15.61 dB 2:31 18-III. Allegro
DR10 -2.67 dB -16.05 dB 3:32 19-Flautino
DR12 -0.20 dB -14.79 dB 3:45 20-I. Allegro (III)
DR12 -3.05 dB -17.33 dB 5:34 21-II. Grazioso (II)
DR12 -0.20 dB -14.48 dB 2:24 22-III. Allegrissimo
––––––––––––––––––––––––––––––––––––––––

Number of tracks: 22
Official DR value: DR12

Samplerate: 96000 Hz
Channels: 2
Bits per sample: 24
Bitrate: 3019 kbps
Codec: FLAC
================================================================================



Thanks to the Original customer.