Tags
Language
Tags

La Petite Bande & Sigiswald Kuijken - Kantaten im Januar (2021) [Official Digital Download 24/96]

Posted By: pyatak
La Petite Bande & Sigiswald Kuijken - Kantaten im Januar (2021) [Official Digital Download 24/96]

La Petite Bande & Sigiswald Kuijken - Kantaten im Januar (2021) [Official Digital Download 24/96]
FLAC (tracks) 24-bit/96 kHz | Front Cover | Time - 61:57 minutes | 1,12 GB
Classical, Vocal | Label: Accent, Official Digital Download

Even after the completion of the highly praised Bach cantata series, which was released between 2004 and 2014, and in which La Petite Bande recorded cantatas for every Sunday of the liturgical year, Sigiswald Kuijken still does not let go of his great passion for Johann Sebastian Bach. He turns once again to the cantatas and presents on his new recording three works that Bach wrote for the end of January and the beginning of February, and that he performed in Leipzig at St Thomas' Church between 1725 and 1729. Two of these cantatas - BWV 72 "Alles nur nach Gottes Willen" (1726) and BWV 156 "Ich stehe mit einem Fuß im Grabe" (1729) - were composed for the third Sunday after Epiphany, and the other one - BWV 92 "Ich hab in Gottes Herz und Sinn" (1725) - for the Sunday Septuagesima, i.e. for two weeks later. Kuijken remains true to his performing decisions for the cantata series: all instrumental and vocal parts are occupied only by soloists, which results in a very transparent sound and makes the structures and layers of Bach's sometimes highly complex works always easily audible.

TRACKLIST

01. La Petite Bande & Sigiswald Kuijken - Bach: Alles nur nach Gottes Willen, BWV 72: No. 1, Alles nur nach Gottes Willen
02. La Petite Bande & Sigiswald Kuijken - Bach: Alles nur nach Gottes Willen, BWV 72: No. 2, O selger Christ, der allzeit seinen Willen
03. La Petite Bande & Sigiswald Kuijken - Bach: Alles nur nach Gottes Willen, BWV 72: No. 3, Mit allem, was ich hab und bin
04. La Petite Bande & Sigiswald Kuijken - Bach: Alles nur nach Gottes Willen, BWV 72: No. 4, So glaube nun!
05. La Petite Bande & Sigiswald Kuijken - Bach: Alles nur nach Gottes Willen, BWV 72: No. 5, Mein Jesus will es tun, er will dein Kreuz versüßen
06. La Petite Bande & Sigiswald Kuijken - Bach: Alles nur nach Gottes Willen, BWV 72: No. 6, Was mein Gott will, das g'scheh allzeit
07. La Petite Bande & Sigiswald Kuijken - Bach: Ich steh mit einem Fuß im Grabe, BWV 156: No. 1, Sinfonia
08. La Petite Bande & Sigiswald Kuijken - Bach: Ich steh mit einem Fuß im Grabe, BWV 156: No. 2, Ich steh mit einem Fuß im Grabe
09. La Petite Bande & Sigiswald Kuijken - Bach: Ich steh mit einem Fuß im Grabe, BWV 156: No. 3, Mein Angst und Not
10. La Petite Bande & Sigiswald Kuijken - Bach: Ich steh mit einem Fuß im Grabe, BWV 156: No. 4, Herr, was du willt, soll mir gefallen
11. La Petite Bande & Sigiswald Kuijken - Bach: Ich steh mit einem Fuß im Grabe, BWV 156: No. 5, Und willst du, dass ich nicht soll kranken
12. La Petite Bande & Sigiswald Kuijken - Bach: Ich steh mit einem Fuß im Grabe, BWV 156: No. 6, Herr, wie du willt, so schicks mit mir
13. La Petite Bande & Sigiswald Kuijken - Bach: Ich hab in Gottes Herz und Sinn, BWV 92: No. 1, Ich hab in Gottes Herz und Sinn
14. La Petite Bande & Sigiswald Kuijken - Bach: Ich hab in Gottes Herz und Sinn, BWV 92: No. 2, Es kann mir fehlen nimmermehr!
15. La Petite Bande & Sigiswald Kuijken - Bach: Ich hab in Gottes Herz und Sinn, BWV 92: No. 3, Seht, seht! Wie reißt, wie bricht, wie fällt
16. La Petite Bande & Sigiswald Kuijken - Bach: Ich hab in Gottes Herz und Sinn, BWV 92: No. 4, Zudem ist Weisheit und Verstand
17. La Petite Bande & Sigiswald Kuijken - Bach: Ich hab in Gottes Herz und Sinn, BWV 92: No. 5, Wir wollen nun nicht länger zagen
18. La Petite Bande & Sigiswald Kuijken - Bach: Ich hab in Gottes Herz und Sinn, BWV 92: No. 6, Das Brausen von den rauhen Winden
19. La Petite Bande & Sigiswald Kuijken - Bach: Ich hab in Gottes Herz und Sinn, BWV 92: No. 7, Ei nun, mein Gott, so fall ich
20. La Petite Bande & Sigiswald Kuijken - Bach: Ich hab in Gottes Herz und Sinn, BWV 92: No. 8, Meinem Hirten belieb ich treu
21. La Petite Bande & Sigiswald Kuijken - Bach: Ich hab in Gottes Herz und Sinn, BWV 92: No. 9, Soll ich denn auch des Todes Weg

foobar2000 1.6.2 / Dynamic Range Meter 1.1.1
log date: 2021-01-15 13:25:11

––––––––––––––––––––––––––––––––––––––––
Analyzed: La Petite Bande & Sigiswald Kuijken / Kantaten im Januar
––––––––––––––––––––––––––––––––––––––––

DR Peak RMS Duration Track
––––––––––––––––––––––––––––––––––––––––
DR14 -0.76 dB -19.39 dB 3:35 01-Bach: Alles nur nach Gottes Willen, BWV 72: No. 1, Alles nur nach Gottes Willen
DR13 -7.63 dB -24.57 dB 2:27 02-Bach: Alles nur nach Gottes Willen, BWV 72: No. 2, O selger Christ, der allzeit seinen Willen
DR15 -5.02 dB -24.85 dB 4:25 03-Bach: Alles nur nach Gottes Willen, BWV 72: No. 3, Mit allem, was ich hab und bin
DR14 -10.34 dB -27.46 dB 1:02 04-Bach: Alles nur nach Gottes Willen, BWV 72: No. 4, So glaube nun!
DR14 -1.64 dB -21.56 dB 3:19 05-Bach: Alles nur nach Gottes Willen, BWV 72: No. 5, Mein Jesus will es tun, er will dein Kreuz versüßen
DR11 -4.70 dB -20.45 dB 1:24 06-Bach: Alles nur nach Gottes Willen, BWV 72: No. 6, Was mein Gott will, das g'scheh allzeit
DR11 -13.84 dB -27.72 dB 2:39 07-Bach: Ich steh mit einem Fuß im Grabe, BWV 156: No. 1, Sinfonia
DR14 -3.77 dB -23.81 dB 5:15 08-Bach: Ich steh mit einem Fuß im Grabe, BWV 156: No. 2, Ich steh mit einem Fuß im Grabe
DR13 -8.15 dB -26.40 dB 1:40 09-Bach: Ich steh mit einem Fuß im Grabe, BWV 156: No. 3, Mein Angst und Not
DR14 -6.30 dB -24.13 dB 4:04 10-Bach: Ich steh mit einem Fuß im Grabe, BWV 156: No. 4, Herr, was du willt, soll mir gefallen
DR14 -9.43 dB -26.82 dB 1:10 11-Bach: Ich steh mit einem Fuß im Grabe, BWV 156: No. 5, Und willst du, dass ich nicht soll kranken
DR12 -1.85 dB -19.73 dB 1:16 12-Bach: Ich steh mit einem Fuß im Grabe, BWV 156: No. 6, Herr, wie du willt, so schicks mit mir
DR12 -3.45 dB -20.79 dB 6:34 13-Bach: Ich hab in Gottes Herz und Sinn, BWV 92: No. 1, Ich hab in Gottes Herz und Sinn
DR16 -1.67 dB -23.79 dB 4:10 14-Bach: Ich hab in Gottes Herz und Sinn, BWV 92: No. 2, Es kann mir fehlen nimmermehr!
DR14 -3.93 dB -21.70 dB 2:43 15-Bach: Ich hab in Gottes Herz und Sinn, BWV 92: No. 3, Seht, seht! Wie reißt, wie bricht, wie fällt
DR11 -8.83 dB -23.31 dB 3:16 16-Bach: Ich hab in Gottes Herz und Sinn, BWV 92: No. 4, Zudem ist Weisheit und Verstand
DR14 -4.76 dB -24.66 dB 1:23 17-Bach: Ich hab in Gottes Herz und Sinn, BWV 92: No. 5, Wir wollen nun nicht länger zagen
DR16 -2.55 dB -22.29 dB 4:18 18-Bach: Ich hab in Gottes Herz und Sinn, BWV 92: No. 6, Das Brausen von den rauhen Winden
DR13 -3.72 dB -22.90 dB 2:29 19-Bach: Ich hab in Gottes Herz und Sinn, BWV 92: No. 7, Ei nun, mein Gott, so fall ich
DR15 -1.22 dB -23.17 dB 3:30 20-Bach: Ich hab in Gottes Herz und Sinn, BWV 92: No. 8, Meinem Hirten belieb ich treu
DR11 -3.16 dB -19.59 dB 1:29 21-Bach: Ich hab in Gottes Herz und Sinn, BWV 92: No. 9, Soll ich denn auch des Todes Weg
––––––––––––––––––––––––––––––––––––––––

Number of tracks: 21
Official DR value: DR13

Samplerate: 96000 Hz
Channels: 2
Bits per sample: 24
Bitrate: 2573 kbps
Codec: FLAC
================================================================================



Thanks to the Original customer.