LeAnn Rimes - CHANT - The Human & The Holy (2020) [Official Digital Download 24/96]

Posted By: pyatak
LeAnn Rimes - CHANT - The Human & The Holy (2020) [Official Digital Download 24/96]

LeAnn Rimes - CHANT - The Human & The Holy (2020) [Official Digital Download 24/96]
FLAC (tracks) 24-bit/96 kHz | Front Cover | Time - 55:17 minutes | 1,06 GB
Holiday | Label: EverLe Records, Official Digital Download

LeAnn Rimes shifts her focus into a new stylistic direction with CHANT: The Human & the Holy, a 12-track collection set for release on Friday (Nov. 20). Rimes dropped two of the songs off the album ahead of the full project's release, beginning with "Sing Love Into the World."

This song, like the rest of CHANT, grew out of Rimes' practice of daily mantras and inspirational chants. It's an important piece of the singer's toolkit for physical, mental and emotional wellness, which she started building after checking herself into a treatment facility for depression and anxiety in 2012, one day after her 30th birthday.

Rimes has been open about her mental health struggles over the years, explaining that her early rise to fame took a toll on her from a mental standpoint. The singer shot to overnight success with "Blue" in 1996, at the age of 14. She also points to her parents' divorce and the collapse of her first marriage to dancer Dean Sheremet in 2009 as contributing factors.

When she began treatment, the singer was only a year into her marriage to actor Eddie Cibrian, and she has said that the issues she faced then posed a challenge in their relationship — but after working through those struggles, her marriage is stronger than ever.

TRACKLIST

01. LeAnn Rimes - My Heart
02. LeAnn Rimes - Be Still and Know
03. LeAnn Rimes - In the Stillness
04. LeAnn Rimes - Treasured
05. LeAnn Rimes - Human/Holy
06. LeAnn Rimes - The Truth of Love
07. LeAnn Rimes - What I Cannot Change (Chant)
08. LeAnn Rimes - With My Hands
09. LeAnn Rimes - Set Me Free
10. LeAnn Rimes - Let the Light In
11. LeAnn Rimes - Christed
12. LeAnn Rimes - Sing Love into the World

foobar2000 1.6.2 / Dynamic Range Meter 1.1.1
log date: 2020-11-22 07:54:02

––––––––––––––––––––––––––––––––––––––––
Analyzed: LeAnn Rimes / CHANT: The Human & The Holy
––––––––––––––––––––––––––––––––––––––––

DR Peak RMS Duration Track
––––––––––––––––––––––––––––––––––––––––
DR11 -0.20 dB -14.96 dB 3:15 01-My Heart
DR10 -1.70 dB -14.76 dB 5:13 02-Be Still and Know
DR9 -1.54 dB -14.61 dB 7:35 03-In the Stillness
DR11 -0.49 dB -13.27 dB 3:19 04-Treasured
DR9 -0.81 dB -13.99 dB 2:36 05-Human/Holy
DR12 -1.21 dB -18.20 dB 3:02 06-The Truth of Love
DR12 -0.49 dB -16.30 dB 6:28 07-What I Cannot Change (Chant)
DR10 -0.09 dB -14.62 dB 4:13 08-With My Hands
DR12 -0.44 dB -15.84 dB 7:12 09-Set Me Free
DR9 -0.16 dB -11.05 dB 4:21 10-Let the Light In
DR9 -0.20 dB -10.31 dB 3:50 11-Christed
DR6 -0.49 dB -9.00 dB 4:14 12-Sing Love into the World
––––––––––––––––––––––––––––––––––––––––

Number of tracks: 12
Official DR value: DR10

Samplerate: 96000 Hz
Channels: 2
Bits per sample: 24
Bitrate: 3177 kbps
Codec: FLAC
================================================================================



Thanks to the Original customer.