Leonard Bernstein - Schuman: Symphonies Nos. 3 & 5 (1970/2018) [Official Digital Download 24/192]

Posted By: SERTiL
Leonard Bernstein - Schuman: Symphonies Nos. 3 & 5 (1970/2018) [Official Digital Download 24/192]

Leonard Bernstein - Schuman: Symphonies Nos. 3 & 5 (1970/2018)
FLAC (tracks) 24-bit/192 kHz | Time - 47:37 minutes | 1.90 GB
Studio Master, Official Digital Download | Artwork: Front Cover

On the eve of his centenary in 2018, Sony Classical releases the most important collection, Leonard Bernstein’s classic American Columbia recordings, remastered from their original 2- and multi-track analogue tapes. This has allowed for the creation of a natural balance (for example, between the orchestra and solo instruments) that brings the quality of these half-century-old recordings, excellent for their time, up to the standards of today’s audiophiles. In addition, there has been a meticulous restoration of some earlier masterings in which LP surface noise was too rigorously eliminated at the expense of the original brilliance.

Tracklist:

William Howard Schuman (1910-1992)

01. Symphony for Strings (Symphony No. 5): I. Molto agitato ed energico
02. Symphony for Strings (Symphony No. 5): II. Larghissimo
03. Symphony for Strings (Symphony No. 5): III. Presto
04. Symphony No. 3: Part I: Passacaglia and Fugue
05. Symphony No. 3: Part II: Chorale and Toccata

Personnel:
New York Philharmonic
Leonard Bernstein (conductor)

foobar2000 1.3.7 / Dynamic Range Meter 1.1.1
log date: 2018-01-19 00:18:11

––––––––––––––––––––––––––––––––––––––––
Analyzed: Leonard Bernstein / Schuman: Symphonies Nos. 3 & 5 (Remastered)
––––––––––––––––––––––––––––––––––––––––

DR Peak RMS Duration Track
––––––––––––––––––––––––––––––––––––––––
DR12 -2.34 dB -17.40 dB 4:24 01-Symphony for Strings (Symphony No. 5): I. Molto agitato ed energico
DR14 -2.51 dB -23.38 dB 7:21 02-Symphony for Strings (Symphony No. 5): II. Larghissimo
DR11 -3.43 dB -19.27 dB 4:53 03-Symphony for Strings (Symphony No. 5): III. Presto
DR12 -0.85 dB -16.53 dB 13:43 04-Symphony No. 3: Part I: Passacaglia and Fugue
DR13 -0.41 dB -20.04 dB 17:18 05-Symphony No. 3: Part II: Chorale and Toccata
––––––––––––––––––––––––––––––––––––––––

Number of tracks: 5
Official DR value: DR12

Samplerate: 192000 Hz
Channels: 2
Bits per sample: 24
Bitrate: 5644 kbps
Codec: FLAC
================================================================================


Thanks to the Original customer.