Leonard Elschenbroich & Alexei Grynyuk - Beethoven: Sonatas for Cello and Piano (2019) [Official Digital Download]

Posted By: SERTiL
Leonard Elschenbroich & Alexei Grynyuk - Beethoven: Sonatas for Cello and Piano (2019) [Official Digital Download]

Leonard Elschenbroich & Alexei Grynyuk - Beethoven: Sonatas for Cello and Piano (2019)
FLAC (tracks) 24-bit/48 kHz | Time - 125:45 minutes | 1.11 GB
Studio Master, Official Digital Download | Artwork: Digital Booklet

The five cello sonatas span Beethoven’s three creative periods, with the audacious op.5 sonatas dating from the early years on his time in Vienna as a piano virtuoso and aspiring composer (1792-9), the great op.69 sonata is from the period that saw the composition of symphonies 4-8, the violin concerto, Mass in C and the String Quartets op59. The two op102 sonatas are from the cusp of the ‘late’ period, this is the time of the 9th Symphony, the Missa Solemnis, the great string quartets op127 – 135 and the last five piano sonatas.

The cello and piano are truly equal partners in all these works, and Beethoven exploited the full range of the cello placing great demands on the player. The op.17 sonatas from the 1790s was composed for horn and piano. The transcription is believed to be by the composer, or at least approved by him.

Tracklist:
1. Cello Sonata No. 1 in F Major, Op. 51 I. Adagio sostenuto
2. Cello Sonata No. 1 in F Major, Op. 51 II. Allegro
3. Cello Sonata No. 1 in F Major, Op. 51 III. Rondo. Allegro vivace
4. Cello Sonata No. 2 in G Minor, Op. 52 I. Adagio sostenuto ed espressivo
5. Cello Sonata No. 2 in G Minor, Op. 52 II. Allegro molto, più tosto presto
6. Cello Sonata No. 2 in G Minor, Op. 52 III. Rondo. Allegro
7. Cello Sonata in F Major, Op. 17 I. Allegro moderato (Arr. From Horn Sonata)
8. Cello Sonata in F Major, Op. 17 II. Poco Adagio, quasi Andante (Arr. From Horn Sonata)
9. Cello Sonata in F Major, Op. 17 III. Rondo. Allegro moderato (Arr. From Horn Sonata).f
10. Sonata No. 3 in A Major, Op. 69 I. Allegro ma non tanto
11. Sonata No. 3 in A Major, Op. 69 II. Scherzo. Allegro molto
12. Sonata No. 3 in A Major, Op. 69 III. Adagio cantabile – Allegro vivace
13. Cello Sonata No. 4 in C Major, Op. 1021 I. Andante
14. Cello Sonata No. 4 in C Major, Op. 1021 II. Allegro vivace
15. Cello Sonata No. 4 in C Major, Op. 1021 II. Adagio – Tempo d'andante
16. Cello Sonata No. 4 in C Major, Op. 1021 IV. Allegro vivace
17. Cello Sonata No. 5 in D Major, Op. 1022 I. Allegro con brio
18. Cello Sonata No. 5 in D Major, Op. 1022 II. Adagio con molto sentiment d'affetto
19. Cello Sonata No. 5 in D Major, Op. 1022 III. Allegro fugato

Personnel:
Leonard Elschenbroich (cello)
Alexei Grynyuk (piano)

foobar2000 1.3.7 / Dynamic Range Meter 1.1.1
log date: 2019-05-01 11:28:51

––––––––––––––––––––––––––––––––––––––––
Analyzed: Leonard Elschenbroich & Alexei Grynyuk / Beethoven: Sonatas for Cello and Piano
––––––––––––––––––––––––––––––––––––––––

DR Peak RMS Duration Track
––––––––––––––––––––––––––––––––––––––––
DR13 -0.96 dB -22.76 dB 3:05 01-Cello Sonata No. 1 in F Major, Op. 5/1: I. Adagio sostenuto
DR14 -0.89 dB -19.82 dB 14:17 02-Cello Sonata No. 1 in F Major, Op. 5/1: II. Allegro
DR14 -0.45 dB -19.93 dB 7:08 03-Cello Sonata No. 1 in F Major, Op. 5/1: III. Rondo. Allegro vivace
DR15 -4.14 dB -26.24 dB 6:00 04-Cello Sonata No. 2 in G Minor, Op. 5/2: I. Adagio sostenuto ed espressivo
DR13 -0.45 dB -19.25 dB 14:22 05-Cello Sonata No. 2 in G Minor, Op. 5/2: II. Allegro molto, più tosto presto
DR15 -0.67 dB -21.67 dB 8:25 06-Cello Sonata No. 2 in G Minor, Op. 5/2: III. Rondo. Allegro
DR13 -0.45 dB -20.35 dB 5:30 07-Cello Sonata in F Major, Op. 17: I. Allegro moderato (Arr. From Horn Sonata)
DR13 -12.24 dB -30.87 dB 1:27 08-Cello Sonata in F Major, Op. 17: II. Poco Adagio, quasi Andante (Arr. From Horn Sonata)
DR14 -4.65 dB -25.69 dB 4:47 09-Cello Sonata in F Major, Op. 17: III. Rondo. Allegro moderato (Arr. From Horn Sonata)
DR14 -1.41 dB -21.09 dB 12:29 10-Sonata No. 3 in A Major, Op. 69: I. Allegro ma non tanto
DR13 -0.45 dB -19.99 dB 5:19 11-Sonata No. 3 in A Major, Op. 69: II. Scherzo. Allegro molto
DR13 -1.74 dB -21.84 dB 8:29 12-Sonata No. 3 in A Major, Op. 69: III. Adagio cantabile – Allegro vivace
DR12 -9.37 dB -28.37 dB 2:41 13-Cello Sonata No. 4 in C Major, Op. 102/1: I. Andante
DR15 -0.45 dB -21.50 dB 5:17 14-Cello Sonata No. 4 in C Major, Op. 102/1: II. Allegro vivace
DR13 -8.47 dB -29.06 dB 2:57 15-Cello Sonata No. 4 in C Major, Op. 102/1: II. Adagio – Tempo d'andante
DR14 -1.05 dB -22.35 dB 4:21 16-Cello Sonata No. 4 in C Major, Op. 102/1: IV. Allegro vivace
DR14 -1.26 dB -20.86 dB 6:42 17-Cello Sonata No. 5 in D Major, Op. 102/2: I. Allegro con brio
DR15 -7.62 dB -28.37 dB 8:52 18-Cello Sonata No. 5 in D Major, Op. 102/2: II. Adagio con molto sentiment d'affetto
DR13 -0.84 dB -18.74 dB 3:48 19-Cello Sonata No. 5 in D Major, Op. 102/2: III. Allegro fugato
––––––––––––––––––––––––––––––––––––––––

Number of tracks: 19
Official DR value: DR14

Samplerate: 48000 Hz
Channels: 2
Bits per sample: 24
Bitrate: 1319 kbps
Codec: FLAC
================================================================================


Thanks to the Original customer.