Tags
Language
Tags

Lester Young - Pres (1974/2021) [Official Digital Download 24/96]

Posted By:
Lester Young - Pres (1974/2021) [Official Digital Download 24/96]

Lester Young - Pres (1974/2021) [Official Digital Download 24/96]
FLAC (tracks) 24-bit/96 kHz | Front Cover | Time - 34:01 minutes | 548 MB
Jazz | Label: Charlie Parker Records, Official Digital Download

Lester Young was unique, just as original and fascinating a musician as he was a human being. He introduced a new way of playing which led to the modern jazz. He was the inspiration for Charlie Parker and countless musicians on all instruments who grew up becoming jazz musicians during the fourties and fifties. The cool jazz of the 1950’s was directly based on Young’s light and relaxed style.

Now, more than 50 years after his death, Young is still an inspiration for many - as the so called mainstream jazz, which never seems to go out of fashion, basically comes from his influence on musicians like Dexter Gordon, Stan Getz, Zoot Sims, Miles Davis, John Lewis, Charlie Christian and others of that generation.

TRACKLIST

1. Lester Young - Blues Tres
2. Lester Young - I Cover the Waterfront
3. Lester Young - These Foolish Things
4. Lester Young - Lester Leaps In
5. Lester Young - Sunday
6. Lester Young - Destination Moon

foobar2000 1.6.2 / Dynamic Range Meter 1.1.1
log date: 2021-08-21 18:16:26

––––––––––––––––––––––––––––––––––––––––
Analyzed: Lester Young / Pres
––––––––––––––––––––––––––––––––––––––––

DR Peak RMS Duration Track
––––––––––––––––––––––––––––––––––––––––
DR8 -1.25 dB -10.51 dB 3:35 01-Blues Tres
DR9 -1.25 dB -12.90 dB 7:08 02-I Cover the Waterfront
DR9 -1.25 dB -12.83 dB 4:00 03-These Foolish Things
DR9 -1.25 dB -11.47 dB 3:07 04-Lester Leaps In
DR9 -1.25 dB -11.99 dB 7:35 05-Sunday
DR8 -1.25 dB -11.97 dB 8:41 06-Destination Moon
––––––––––––––––––––––––––––––––––––––––

Number of tracks: 6
Official DR value: DR9

Samplerate: 96000 Hz
Channels: 2
Bits per sample: 24
Bitrate: 2297 kbps
Codec: FLAC
================================================================================



Thanks to the Original customer.