Tags
Language
Tags

Lewis Nielson - Canto - Oerknal Ensemble (2021) [Official Digital Download 24/192]

Posted By:
Lewis Nielson - Canto - Oerknal Ensemble (2021) [Official Digital Download 24/192]

Lewis Nielson - Canto - Oerknal Ensemble (2021) [Official Digital Download 24/192]
FLAC (tracks) 24-bit/192 kHz | Front Cover | Time - 57:13 minutes | 1,57 GB
Classical | Label: 7 Mountain Records, Official Digital Download

On Friday 15 October 2021, Canto will be released, the second album of the collective for new music Big Bang (on the photo together with recording producer Frerik De Jong). The cd contains three works by the American composer Lewis Nielson. The nine-part Cilice is specially written for Big Bang and the Damask Vocal Quartet, which can also be heard on the album. "Nielson hides and hides information in many of his works," says Big Bang conductor Gregory Charette. “Every time you listen to it or play it, you hear something new. It would be far too much if everything that is in this music were to reveal itself in one go. In this way, certain texts are pulled apart in such a way that at first you can only discern syllables or even single letters."Canto is released by 7 Mountain Records. Read more in the press release of De Nieuwsbakelaar.

TRACKLIST

01. Oerknal Ensemble & Damask Vocal Quartet - Cilice: I. Maceratio I
02. Oerknal Ensemble & Damask Vocal Quartet - Cilice: II. Poenitentia I
03. Oerknal Ensemble & Damask Vocal Quartet - Cilice: III. Peccata I
04. Oerknal Ensemble & Damask Vocal Quartet - Cilice: IV. Poenitentia II
05. Oerknal Ensemble & Damask Vocal Quartet - Cilice: V. Peccata II
06. Oerknal Ensemble & Damask Vocal Quartet - Cilice: VI. Poenitentia III
07. Oerknal Ensemble & Damask Vocal Quartet - Cilice: VII. Peccata III
08. Oerknal Ensemble & Damask Vocal Quartet - Cilice: VIII. Poenitentia IV
09. Oerknal Ensemble & Damask Vocal Quartet - Cilice: IX. Maceratio II
10. Oerknal Ensemble - Crisis of Conscience
11. Oerknal Ensemble - You Choose

foobar2000 1.6.2 / Dynamic Range Meter 1.1.1
log date: 2021-10-13 16:52:10

––––––––––––––––––––––––––––––––––––––––
Analyzed: Oerknal Ensemble & Damask Vocal Quartet / Canto (1-9)
Oerknal Ensemble / Canto (10-11)
––––––––––––––––––––––––––––––––––––––––

DR Peak RMS Duration Track
––––––––––––––––––––––––––––––––––––––––
DR21 -14.36 dB -42.57 dB 3:26 01-Cilice: I. Maceratio I
DR13 -13.45 dB -32.44 dB 5:38 02-Cilice: II. Poenitentia I
DR15 -4.75 dB -29.74 dB 2:30 03-Cilice: III. Peccata I
DR16 -2.36 dB -33.65 dB 5:02 04-Cilice: IV. Poenitentia II
DR20 -8.67 dB -36.28 dB 2:09 05-Cilice: V. Peccata II
DR13 -14.26 dB -32.98 dB 4:33 06-Cilice: VI. Poenitentia III
DR26 0.00 dB -34.11 dB 4:02 07-Cilice: VII. Peccata III
DR23 -1.58 dB -35.65 dB 4:46 08-Cilice: VIII. Poenitentia IV
DR26 -0.11 dB -33.91 dB 3:03 09-Cilice: IX. Maceratio II
DR23 0.00 dB -33.97 dB 13:07 10-Crisis of Conscience
DR20 -10.30 dB -36.75 dB 8:57 11-You Choose
––––––––––––––––––––––––––––––––––––––––

Number of tracks: 11
Official DR value: DR20

Samplerate: 192000 Hz
Channels: 2
Bits per sample: 24
Bitrate: 3867 kbps
Codec: FLAC
================================================================================



Thanks to the Original customer.