Linus Roth & José Gallardo - Virtuoso Dances (2021) [Official Digital Download 24/96]

Posted By: pyatak
Linus Roth & José Gallardo - Virtuoso Dances (2021) [Official Digital Download 24/96]

Linus Roth & José Gallardo - Virtuoso Dances (2021) [Official Digital Download 24/96]
FLAC (tracks) 24-bit/96 kHz | Front Cover | Time - 74:42 minutes | 1,39 GB
Classical | Label: Evil Penguin Classic, Official Digital Download

2020… Sitting at home with no performances ahead brought Linus Roth back to his notebooks, in which he had been jotting down random musical ideas over the course of many years. One of them that suddenly struck him, was an idea for a recording programme made up of some of his most beloved pieces for violin and piano, all of which had in common both a virtuoso character and that they were all dances. What better way to lift the spirits than with dance music? Linus called his long term musical partner, pianist José Gallardo and five weeks later, they had the remarkable opportunity to record the album in the visually stunning and acoustically unique Library of the former monastery in Ochsenhausen, Germany, home of the Music Academy of Baden-Württemberg.

TRACKLIST

01. Linus Roth & José Gallardo - Romanian Folk Dances: I. Jocul cu bâtă (Stick Dance) (Arr. by Z. Székely)
02. Linus Roth & José Gallardo - Romanian Folk Dances: II. Brâul (Sash Dance) (Arr. by Z. Székely)
03. Linus Roth & José Gallardo - Romanian Folk Dances: III. Topogó - Pe loc (In One Spot) (Arr. by Z. Székely)
04. Linus Roth & José Gallardo - Romanian Folk Dances: IV. Bucsumí tánc - Buciumeana (Dance from Bucsum) (Arr. by Z. Székely)
05. Linus Roth & José Gallardo - Romanian Folk Dances: V. Román polka - Poarga Românească (Romanian Polka) (Arr. by Z. Székely)
06. Linus Roth & José Gallardo - Romanian Folk Dances: VI. Aprózó - Mărunțel (Fast Dance) - (Arr. by Z. Székely)
07. Linus Roth & José Gallardo - Divertimento: I. Sinfonia (Arr. by S. Dushkin)
08. Linus Roth & José Gallardo - Divertimento: II. Danse Suisse (Arr. by S. Dushkin)
09. Linus Roth & José Gallardo - Divertimento: III. Scherzo (Arr. by S. Dushkin)
10. Linus Roth & José Gallardo - Divertimento: IVa. Pas de deux - Adagio (Arr. by S. Dushkin)
11. Linus Roth & José Gallardo - Divertimento: IVb. Pas de deux - Variation (Arr. by S. Dushkin)
12. Linus Roth & José Gallardo - Divertimento: IVc. Pas de deux - Coda (Arr. by S. Dushkin)
13. Linus Roth & José Gallardo - Le Grand Tango (Arr. by S. Gubaidulina)
14. Linus Roth & José Gallardo - Hungarian Dances: No. 17 (Arr. by F. Kreisler)
15. Linus Roth & José Gallardo - Hungarian Dances: No. 2 (Arr. by J. Joachim)
16. Linus Roth & José Gallardo - Hungarian Dances: No. 4 (Arr. by J. Joachim)
17. Linus Roth & José Gallardo - Hungarian Dances: No. 5 (Arr. by J. Joachim)
18. Linus Roth & José Gallardo - Polonaise de Concert, Op. 4
19. Linus Roth & José Gallardo - La Ronde des Lutins, Op. 25
20. Linus Roth & José Gallardo - Notturno et Tarantella, Op. 28

foobar2000 1.6.2 / Dynamic Range Meter 1.1.1
log date: 2021-03-04 16:59:30

––––––––––––––––––––––––––––––––––––––––
Analyzed: Linus Roth & José Gallardo / Virtuoso Dances
––––––––––––––––––––––––––––––––––––––––

DR Peak RMS Duration Track
––––––––––––––––––––––––––––––––––––––––
DR13 0.00 dB -16.40 dB 1:28 01-Romanian Folk Dances: I. Jocul cu bâtă (Stick Dance) (Arr. by Z. Székely)
DR13 -8.13 dB -24.94 dB 0:33 02-Romanian Folk Dances: II. Brâul (Sash Dance) (Arr. by Z. Székely)
DR12 -14.24 dB -31.57 dB 1:17 03-Romanian Folk Dances: III. Topogó - Pe loc (In One Spot) (Arr. by Z. Székely)
DR12 -0.95 dB -18.48 dB 1:26 04-Romanian Folk Dances: IV. Bucsumí tánc - Buciumeana (Dance from Bucsum) (Arr. by Z. Székely)
DR12 0.00 dB -13.83 dB 0:33 05-Romanian Folk Dances: V. Román polka - Poarga Românească (Romanian Polka) (Arr. by Z. Székely)
DR11 0.00 dB -13.36 dB 0:59 06-Romanian Folk Dances: VI. Aprózó - Mărunțel (Fast Dance) - (Arr. by Z. Székely)
DR13 0.00 dB -17.64 dB 6:53 07-Divertimento: I. Sinfonia (Arr. by S. Dushkin)
DR13 0.00 dB -17.49 dB 4:58 08-Divertimento: II. Danse Suisse (Arr. by S. Dushkin)
DR14 -0.03 dB -21.65 dB 3:15 09-Divertimento: III. Scherzo (Arr. by S. Dushkin)
DR13 -2.85 dB -23.13 dB 3:34 10-Divertimento: IVa. Pas de deux - Adagio (Arr. by S. Dushkin)
DR14 -5.54 dB -23.59 dB 1:04 11-Divertimento: IVb. Pas de deux - Variation (Arr. by S. Dushkin)
DR14 0.00 dB -17.85 dB 2:26 12-Divertimento: IVc. Pas de deux - Coda (Arr. by S. Dushkin)
DR10 0.00 dB -13.73 dB 8:46 13-Le Grand Tango (Arr. by S. Gubaidulina)
DR12 0.00 dB -15.72 dB 4:12 14-Hungarian Dances: No. 17 (Arr. by F. Kreisler)
DR11 0.00 dB -14.01 dB 2:59 15-Hungarian Dances: No. 2 (Arr. by J. Joachim)
DR13 0.00 dB -17.18 dB 4:37 16-Hungarian Dances: No. 4 (Arr. by J. Joachim)
DR14 0.00 dB -17.49 dB 2:34 17-Hungarian Dances: No. 5 (Arr. by J. Joachim)
DR13 0.00 dB -16.67 dB 5:50 18-Polonaise de Concert, Op. 4
DR16 0.00 dB -20.85 dB 5:45 19-La Ronde des Lutins, Op. 25
DR11 0.00 dB -16.07 dB 11:33 20-Notturno et Tarantella, Op. 28
––––––––––––––––––––––––––––––––––––––––

Number of tracks: 20
Official DR value: DR13

Samplerate: 96000 Hz
Channels: 2
Bits per sample: 24
Bitrate: 2710 kbps
Codec: FLAC
================================================================================



Thanks to the Original customer.