Playing For Change - Listen to the Music (2018) [Official Digital Download]

Posted By: SERTiL
Playing For Change - Listen to the Music (2018) [Official Digital Download]

Playing For Change - Listen to the Music (2018)
FLAC (tracks) 24-bit/44.1 kHz | Time - 52:34 minutes | 589 MB
Studio Master, Official Digital Download | Artwork: Front Cover

This is the fourth in a series of star-studded Songs Around the World from Playing for Change - video and audio recordings of hit songs, multi-tracked by artists videotaped at picturesque locations around the world by visionary producer and philanthropist Mark Johnson. Listen to the Music consists of a 12-song album titled "Listen to the Music" and 12 full-length performance music videos that document the recording of the songs 'live on location' in 25 countries. The project features 210 Artists from 25 countries. Not just a positive message, the Playing for Change organization will also donate 50% of all Listen to the Music profits to 50% of net profits from this project will go to the PFC Foundation to support music education initiatives in 12 countries.



Tracklist:
1. Playing for Change feat. The Doobie Brothers & Ellis Hall - Listen to the Music
2. Playing for Change feat. Luke Winslow-King, Vasti Jackson & Dr. John - Everlasting Arms
3. Playing for Change feat. John Cruz, Warren Haynes, Cyril & Ivan Neville - All Along the Watchtower
4. Playing for Change feat. Paula Fuga, Afro Fiesta, Jack Johnson - Natural Mystic/Just a Little Bit
5. Playing for Change feat. Buddy Guy, Tom Morello - Skin Deep
6. Playing for Change feat. Tete Garcia Catulra, Pancho Amat, Mamadou Diabaté - Chan Chan
7. Playing for Change feat. The Preservation Hall Jazz Band & TP OK Jazz Band - Africa Mokili Mobimba
8. Playing for Change feat. Bombino, Lee Oskar, BOMBINO - Ahoulaguine Akaline
9. Playing for Change feat. Paulo Da Luz, Blue King Brown - Rasta Children
10. Playing for Change feat. Afro Fiesta, Grandpa Elliott, Vasti Jackson - Congo to the Mississippi
11. Playing for Change feat. Roger Ridley, Alice Tan Ridley, Grandpa Elliott - Bring It On Home to Me
12. Playing for Change feat. Jimmy Buffett, David Crosby, David Hidalgo - Ripple

foobar2000 1.3.7 / Dynamic Range Meter 1.1.1
log date: 2018-04-20 18:02:57

––––––––––––––––––––––––––––––––––––––––
Analyzed: Playing for Change feat. Afro Fiesta, Grandpa Elliott, Vasti Jackson / Listen to the Music (1)
Playing for Change feat. Bombino, Lee Oskar, BOMBINO / Listen to the Music (2)
Playing for Change feat. Buddy Guy, Tom Morello / Listen to the Music (3)
Playing for Change feat. Jimmy Buffett, David Crosby, David Hidalgo / Listen to the Music (4)
Playing for Change feat. John Cruz, Warren Haynes, Cyril & Ivan Neville / Listen to the Music (5)
Playing for Change feat. Luke Winslow-King, Vasti Jackson & Dr. John / Listen to the Music (6)
Playing for Change feat. Paula Fuga, Afro Fiesta, Jack Johnson / Listen to the Music (7)
Playing for Change feat. Paulo Da Luz, Blue King Brown / Listen to the Music (8)
Playing for Change feat. Roger Ridley, Alice Tan Ridley, Grandpa Elliott / Listen to the Music (9)
Playing for Change feat. Tete Garcia Catulra, Pancho Amat, Mamadou Diabaté / Listen to the Music (10)
Playing for Change feat. The Doobie Brothers & Ellis Hall / Listen to the Music (11)
Playing for Change feat. The Preservation Hall Jazz Band & TP OK Jazz Band / Listen to the Music (12)
––––––––––––––––––––––––––––––––––––––––

DR Peak RMS Duration Track
––––––––––––––––––––––––––––––––––––––––
DR9 -0.50 dB -10.89 dB 4:27 10-Congo to the Mississippi
DR10 -0.50 dB -12.42 dB 3:47 08-Ahoulaguine Akaline
DR7 -0.50 dB -9.66 dB 5:13 05-Skin Deep
DR7 -0.50 dB -8.91 dB 4:22 12-Ripple
DR7 -0.50 dB -9.09 dB 4:18 03-All Along the Watchtower
DR7 -0.50 dB -9.90 dB 4:40 02-Everlasting Arms
DR8 -0.50 dB -10.04 dB 4:18 04-Natural Mystic/Just a Little Bit
DR10 -0.50 dB -12.47 dB 4:08 09-Rasta Children
DR8 -0.50 dB -10.37 dB 3:42 11-Bring It On Home to Me
DR8 -0.50 dB -9.77 dB 4:06 06-Chan Chan
DR6 -0.50 dB -8.51 dB 4:17 01-Listen to the Music
DR8 -0.50 dB -9.78 dB 5:21 07-Africa Mokili Mobimba
––––––––––––––––––––––––––––––––––––––––

Number of tracks: 12
Official DR value: DR8

Samplerate: 44100 Hz
Channels: 2
Bits per sample: 24
Bitrate: 1584 kbps
Codec: FLAC
================================================================================


Thanks to the Original customer.