Llŷr Williams - Schubert, Vol. 3 (2019) [Official Digital Download 24/96]

Posted By: SERTiL
Llŷr Williams - Schubert, Vol. 3 (2019) [Official Digital Download 24/96]

Llŷr Williams - Schubert, Vol. 3 (2019)
FLAC (tracks) 24-bit/96 kHz | Time - 72:54 minutes | 1.16 GB
Studio Master, Official Digital Download | Artwork: Digital Booklet

Two imposing piano sonatas—the upbeat D850 from 1825 and D958 composed in 1828 and very much a homage to Beethoven at whose funeral the previous year Schubert had been a pall-bearer—recorded during Llŷr Williams' Cardiff series in 2017/18.

Tracklist:
01. Sonata in C minor, D. 958: II. Adagio (9:09)
02. Sonata in C minor, D. 958: I. Allegro (11:08)
03. Sonata in D Major, Op. 53 D. 850: II. Andante con moto (12:54)
04. Sonata in D Major, Op. 53 D. 850: III. Scherzo-Allegro vivace (9:12)
05. Sonata in C minor, D. 958: III. Menuetto-Allegro (3:23)
06. Sonata in D Major, Op. 53 D. 850: IV. Rondo-Allegro moderato (8:52)
07. Sonata in C minor, D. 958: IV. Allegro (9:24)
08. Sonata in D Major, Op. 53 D. 850: I. Allegro (8:58)

foobar2000 1.3.7 / Dynamic Range Meter 1.1.1
log date: 2019-12-10 20:33:51

––––––––––––––––––––––––––––––––––––––––
Analyzed: Llŷr Williams / Schubert, Vol. 3
––––––––––––––––––––––––––––––––––––––––

DR Peak RMS Duration Track
––––––––––––––––––––––––––––––––––––––––
DR14 -3.46 dB -24.11 dB 9:09 01-Sonata in C minor, D. 958: II. Adagio
DR14 -0.16 dB -19.26 dB 11:08 02-Sonata in C minor, D. 958: I. Allegro
DR16 -0.61 dB -22.40 dB 12:54 03-Sonata in D Major, Op. 53 D. 850: II. Andante con moto
DR15 -0.37 dB -19.90 dB 9:12 04-Sonata in D Major, Op. 53 D. 850: III. Scherzo-Allegro vivace
DR14 -3.31 dB -22.68 dB 3:23 05-Sonata in C minor, D. 958: III. Menuetto-Allegro
DR15 -1.50 dB -22.23 dB 8:52 06-Sonata in D Major, Op. 53 D. 850: IV. Rondo-Allegro moderato
DR14 -0.16 dB -20.56 dB 9:24 07-Sonata in C minor, D. 958: IV. Allegro
DR16 -0.16 dB -19.53 dB 8:58 08-Sonata in D Major, Op. 53 D. 850: I. Allegro
––––––––––––––––––––––––––––––––––––––––

Number of tracks: 8
Official DR value: DR15

Samplerate: 96000 Hz
Channels: 2
Bits per sample: 24
Bitrate: 2371 kbps
Codec: FLAC
================================================================================


Thanks to the Original customer.