Tags
Language
Tags

Lord Of The Lost - Judas (2021) [Official Digital Download]

Posted By: pyatak
Lord Of The Lost - Judas (2021) [Official Digital Download]

Lord Of The Lost - Judas (2021) [Official Digital Download]
FLAC (tracks) 24-bit/44.1 kHz | Front Cover | Time - 01:44:11 minutes | 1,19 GB
Gothic Rock, Metal | Label: Napalm Records Handels GmbH, Official Digital Download

"LORD OF THE LOST return with their seventh studio album JUDAS (July 2, 2021 via Napalm Records) and act as usual completely freed from musical shackles and genre boundaries. With the sophisticated and detail-loving release, which was conceived as a double album from the beginning, the five musicians cement their outstanding position as exceptional artists and climb the next level with their most innovative and mature release to date, which does not want to fit into any drawer. Not only the sound is enormous, but also physically LORD OF THE LOST delivers impressively with JUDAS: The album will be available as a limited deluxe box, earbook, 2-CD Mediabook, 2-CD sleevepack, 2 x 2 LP gatefold recycled vinyl, double music cassette and as a digital version.
The auditory experience begins with the atmospheric opener "Priest", at the beginning of which there is a leitmotif, which runs through the album again and creates a tonal symbiosis for the total of 24 songs, which are divided into two album parts with Damnation and Salvation. At the latest with the sacred "For They Know Not What They Do" it becomes clear that JUDAS is based on an organic production of the old school: A real choir accompanies singer Chris Harms, whose haunting voice carries the gripping lyrics more than ever directly into the consciousness of the listener. Songs like" Your Star Has Led You Astray "or" Born With a Broken Heart " effortlessly manage to keep the balance between hard vocals, raw fuzz guitars and gloomy beauty, which form the tonal breeding ground for LORD OF THE LOST. The latter focus on songs such as" Death Is Just a Kiss Away"," My Constellation "and the final" Work of Salvation " by real strings and concert grand pianos, as well as an imposing organ recorded in a church.

TRACKLIST

01. Lord Of The Lost - Priest
02. Lord Of The Lost - For They Know Not What They Do
03. Lord Of The Lost - Your Star Has Led You Astray
04. Lord Of The Lost - Born with a Broken Heart
05. Lord Of The Lost - The 13th
06. Lord Of The Lost - In the Field of Blood
07. Lord Of The Lost - 2000 Years a Pyre
08. Lord Of The Lost - Death is Just a Kiss Away
09. Lord Of The Lost - The Heart is a Traitor
10. Lord Of The Lost - Euphoria
11. Lord Of The Lost - Be Still and Know
12. Lord Of The Lost - The Death of All Colours
13. Lord Of The Lost - The Gospel of Judas
14. Lord Of The Lost - Viva Vendetta
15. Lord Of The Lost - Argent
16. Lord Of The Lost - The Heartbeat of the Devil
17. Lord Of The Lost - And It Was Night
18. Lord Of The Lost - My Constellation
19. Lord Of The Lost - The Ashes of Flowers
20. Lord Of The Lost - Iskarioth
21. Lord Of The Lost - A War Within
22. Lord Of The Lost - A World Where We Belong
23. Lord Of The Lost - Apokatastasis
24. Lord Of The Lost - Work of Salvation

foobar2000 1.6.2 / Dynamic Range Meter 1.1.1
log date: 2021-07-03 11:21:40

––––––––––––––––––––––––––––––––––––––––
Analyzed: Lord Of The Lost / Judas
––––––––––––––––––––––––––––––––––––––––

DR Peak RMS Duration Track
––––––––––––––––––––––––––––––––––––––––
DR5 -0.10 dB -7.90 dB 5:20 01-Priest
DR5 -0.10 dB -7.12 dB 4:23 02-For They Know Not What They Do
DR5 -0.10 dB -7.60 dB 3:32 03-Your Star Has Led You Astray
DR5 -0.10 dB -7.11 dB 4:07 04-Born with a Broken Heart
DR6 -0.10 dB -8.58 dB 4:19 05-The 13th
DR6 -0.10 dB -8.18 dB 4:18 06-In the Field of Blood
DR6 -0.10 dB -7.93 dB 4:21 07-2000 Years a Pyre
DR7 -0.10 dB -10.14 dB 4:27 08-Death is Just a Kiss Away
DR5 -0.10 dB -7.35 dB 3:52 09-The Heart is a Traitor
DR6 -0.10 dB -8.90 dB 4:42 10-Euphoria
DR6 -0.10 dB -8.81 dB 3:58 11-Be Still and Know
DR10 -0.10 dB -12.95 dB 3:52 12-The Death of All Colours
DR6 -0.10 dB -7.23 dB 4:06 13-The Gospel of Judas
DR6 -0.10 dB -7.58 dB 3:50 14-Viva Vendetta
DR6 -0.10 dB -8.44 dB 5:14 15-Argent
DR6 -0.10 dB -7.79 dB 4:44 16-The Heartbeat of the Devil
DR6 -0.10 dB -7.90 dB 4:34 17-And It Was Night
DR5 -0.10 dB -8.35 dB 4:46 18-My Constellation
DR5 -0.10 dB -7.36 dB 4:51 19-The Ashes of Flowers
DR5 -0.10 dB -7.30 dB 3:59 20-Iskarioth
DR5 -0.10 dB -8.94 dB 4:53 21-A War Within
DR6 -0.10 dB -8.44 dB 4:26 22-A World Where We Belong
DR10 -1.79 dB -15.44 dB 2:45 23-Apokatastasis
DR8 -0.10 dB -11.37 dB 4:53 24-Work of Salvation
––––––––––––––––––––––––––––––––––––––––

Number of tracks: 24
Official DR value: DR6

Samplerate: 44100 Hz
Channels: 2
Bits per sample: 24
Bitrate: 1417 kbps
Codec: FLAC
================================================================================



Thanks to the Original customer.