Tags
Language
Tags

Lorin Hollander - Chopin- Polonaise in A-Flat & Scherzo No. 2 - Liszt - Hungarian Rhapsody No. 6 & Mephisto Waltz No. 3 (2022)

Posted By: pyatak
Lorin Hollander - Chopin- Polonaise in A-Flat & Scherzo No. 2 - Liszt - Hungarian Rhapsody No. 6 & Mephisto Waltz No. 3 (2022)

Lorin Hollander - Chopin- Polonaise in A-Flat & Scherzo No. 2 - Liszt - Hungarian Rhapsody No. 6 & Mephisto Waltz No. 3 (1959/2022)
FLAC (tracks) 24-bit/192 kHz | Front Cover | Time - 46:35 minutes | 1,84 GB
Classical | Studio Master, Official Digital Download

Lorin Hollander is a world-renowned concert pianist with a continuously acclaimed 50-year international career that began with a Carnegie Hall debut at the age of 11. Lorin was an infant child prodigy who composed music at age three and performed Bach’s Well-Tempered Clavier at five. Since then, he has appeared as guest soloist with virtually every major symphony orchestra in the world and is a veteran of over 2,500 performances: orchestral, recital, lecture/recital, chamber music - as well as symphony and choral conductor. Mr. Hollander has collaborated with the leading conductors of our time, among them: Bernstein, Haitink, Leinsdorf, Levine, Mehta, Monteux, Ormandy, Ozawa, Previn, Slatkin, Szell and Tilson Thomas.

TRACKLIST

1. Lorin Hollander - Polonaise in A-Flat Major, Op. 53 "Heroic" (2022 Remastered Version)
2. Lorin Hollander - Scherzo No. 2 in B-Flat Minor, Op. 31 (2022 Remastered Version)
3. Lorin Hollander - Hungarian Rhapsody No. 6 in D-Flat Major, S.244/6 (2022 Remastered Version)
4. Lorin Hollander - Mephisto Waltz No. 1, S. 514 (2022 Remastered Version)
5. Lorin Hollander - Intermezzo in B-Flat Minor, Op. 117, No. 2 (2022 Remastered Version)
6. Lorin Hollander - Rhapsody in G Minor, Op. 79, No. 2 (2022 Remastered Version)
7. Lorin Hollander - Prelude in C-Sharp Minor, Op. 3, No. 2 (2022 Remastered Version)

foobar2000 1.6.2 / Dynamic Range Meter 1.1.1
log date: 2022-06-18 10:10:45

––––––––––––––––––––––––––––––––––––––––
Analyzed: Lorin Hollander / Chopin: Polonaise in A-Flat & Scherzo No. 2 - Liszt: Hungarian Rhapsody No. 6 & Mephisto Waltz No. 3
––––––––––––––––––––––––––––––––––––––––

DR Peak RMS Duration Track
––––––––––––––––––––––––––––––––––––––––
DR11 -0.77 dB -15.28 dB 6:01 01-Polonaise in A-Flat Major, Op. 53 "Heroic" (2022 Remastered Version)
DR12 -1.99 dB -19.31 dB 8:45 02-Scherzo No. 2 in B-Flat Minor, Op. 31 (2022 Remastered Version)
DR12 -1.36 dB -17.65 dB 7:12 03-Hungarian Rhapsody No. 6 in D-Flat Major, S.244/6 (2022 Remastered Version)
DR12 -0.32 dB -17.84 dB 10:24 04-Mephisto Waltz No. 1, S. 514 (2022 Remastered Version)
DR14 -1.62 dB -22.03 dB 4:16 05-Intermezzo in B-Flat Minor, Op. 117, No. 2 (2022 Remastered Version)
DR12 -0.80 dB -18.53 dB 5:48 06-Rhapsody in G Minor, Op. 79, No. 2 (2022 Remastered Version)
DR12 -2.80 dB -20.07 dB 4:10 07-Prelude in C-Sharp Minor, Op. 3, No. 2 (2022 Remastered Version)
––––––––––––––––––––––––––––––––––––––––

Number of tracks: 7
Official DR value: DR12

Samplerate: 192000 Hz
Channels: 2
Bits per sample: 24
Bitrate: 5525 kbps
Codec: FLAC
================================================================================



Thanks to the Original customer.