Tags
Language
Tags
May 2024
Su Mo Tu We Th Fr Sa
28 29 30 1 2 3 4
5 6 7 8 9 10 11
12 13 14 15 16 17 18
19 20 21 22 23 24 25
26 27 28 29 30 31 1

Louis Hayes - Exactly Right! (2023) [Official Digital Download 24/96]

Posted By: pyatak
Louis Hayes - Exactly Right! (2023) [Official Digital Download 24/96]

Louis Hayes - Exactly Right! (2023) [Official Digital Download 24/96]
FLAC (tracks) 24-bit/96 kHz | Front Cover | Time - 54:47 minutes | 1,08 GB
Jazz | Studio Master, Official Digital Download

Louis Hayes' music is full of life and humanity, it is sometimes refreshingly simple and sometimes intricately complex, sometimes light, sometimes dark, but it is always interesting and consistently engaging.

Through it all, Louis Hayes has always remained indefatigably optimistic and his latest Savant release is all those things. Throughout the album Hayes, a 2023 NEA Jazz Master, coaxes concise, well-conceived tracks from his players where everybody swings with loads of feeling, and no self-indulgence.

From the first note to the last Hayes creates performances that take veteran jazz listeners into deep jazz waters while at the same time allowing recent converts to safely wade into the invigorating flow of ideas.

TRACKLIST

1 Exactly Right!
2 Is That So?
3 Hand in Glove
4 So Many Stars
5 Carmine's Bridge
6 Nefertiti
7 Mellow D
8 Theme for Ernie
9 Scarborough Fair
10 Ugetsu

foobar2000 1.6.2 / Dynamic Range Meter 1.1.1
log date: 2023-04-20 13:31:19

––––––––––––––––––––––––––––––––––––––––
Analyzed: Louis Hayes / Exactly Right!
––––––––––––––––––––––––––––––––––––––––

DR Peak RMS Duration Track
––––––––––––––––––––––––––––––––––––––––
DR11 -0.70 dB -12.95 dB 4:40 01-Exactly Right!
DR11 -0.70 dB -14.19 dB 6:38 02-Is That So?
DR11 -0.70 dB -13.56 dB 6:45 03-Hand in Glove
DR12 -0.70 dB -15.86 dB 5:34 04-So Many Stars
DR11 -0.70 dB -13.46 dB 5:01 05-Carmine's Bridge
DR12 -0.70 dB -15.69 dB 5:18 06-Nefertiti
DR11 -0.70 dB -14.07 dB 5:27 07-Mellow D
DR12 -0.70 dB -15.76 dB 5:40 08-Theme for Ernie
DR11 -0.70 dB -13.48 dB 3:45 09-Scarborough Fair
DR10 -0.70 dB -13.13 dB 6:03 10-Ugetsu
––––––––––––––––––––––––––––––––––––––––

Number of tracks: 10
Official DR value: DR11

Samplerate: 96000 Hz
Channels: 2
Bits per sample: 24
Bitrate: 2944 kbps
Codec: FLAC
================================================================================



Thanks to the Original customer.