Tags
Language
Tags

Luca Fanfoni - 24 Capricci Plus One (2022) [Official Digital Download]

Posted By: ciklon5
Luca Fanfoni - 24 Capricci Plus One (2022)  [Official Digital Download]

Luca Fanfoni - 24 Capricci Plus One (2022) [Official Digital Download]
FLAC (tracks), Lossless [24bit-48kHz] | 1:33:36 | 0,98 Gb
Genre: Classical / Label: Dynamic

Pietro Antonio Locatelli was one of the most admired and influential violinist-composers of the 18th century. The summit of his achievement is L’arte del violino, Op. 3, twelve concertos for violin, strings and continuo, each of which contains two sizeable cadenzas that Locatelli called Capricci – bravura pieces independent of their concerto context. Greatly developing chord and arpeggio techniques and full of double-stops and string crossings, they are the most demanding violin works ever composed before Paganini’s own Capricci, which may well have been influenced by Locatelli’s example. Parma born violinist Luca Fanfoni has made several recordings for Dynamic. The recent recording of the 12 Concertos Op. 1 by Mauro D’Alay was praised by MusicWeb International: ‘Luca Fanfoni is a skilled player with a silvery tone’. Luca Fanfoni plays on a violin made by Gioffredo Cappa (Saluzzo, 1690).

Track List:
[03:29] 01. Luca Fanfoni - Capriccio No. 1 in D Major
[04:43] 02. Luca Fanfoni - Capriccio No. 2 in D Major
[03:34] 03. Luca Fanfoni - Capriccio No. 3 in C Major
[04:13] 04. Luca Fanfoni - Capriccio No. 4 in C Major
[03:52] 05. Luca Fanfoni - Capriccio No. 5 in F Major
[03:00] 06. Luca Fanfoni - Capriccio No. 6 in F Major
[03:18] 07. Luca Fanfoni - Capriccio No. 7 in E Major
[03:47] 08. Luca Fanfoni - Capriccio No. 8 in E Major
[04:17] 09. Luca Fanfoni - Capriccio No. 9 in C Major
[03:41] 10. Luca Fanfoni - Capriccio No. 10 in C Major
[03:18] 11. Luca Fanfoni - Capriccio No. 11 in G Major
[03:29] 12. Luca Fanfoni - Capriccio No. 12 in G Minor
[03:43] 13. Luca Fanfoni - Capriccio No. 13 in B-Flat Major
[03:55] 14. Luca Fanfoni - Capriccio No. 14 in B-Flat Major
[02:27] 15. Luca Fanfoni - Capriccio No. 15 in E Minor
[04:15] 16. Luca Fanfoni - Capriccio No. 16 in E Minor
[04:01] 17. Luca Fanfoni - Capriccio No. 17 in G Major
[03:17] 18. Luca Fanfoni - Capriccio No. 18 in G Major
[02:58] 19. Luca Fanfoni - Capriccio No. 19 in F Major
[03:23] 20. Luca Fanfoni - Capriccio No. 20 in F Major
[02:40] 21. Luca Fanfoni - Capriccio No. 21 in A Major
[02:48] 22. Luca Fanfoni - Capriccio No. 22 in A Major
[03:16] 23. Luca Fanfoni - Capriccio No. 23 in D Major "Il labirinto armonico"
[06:10] 24. Luca Fanfoni - Capriccio No. 24 in D Major
[05:45] 25. Luca Fanfoni - Capriccio in D Minor, Op. 6 No. 12 “Prova dell'intonazione”

foobar2000 1.6.10 / Dynamic Range Meter 1.1.1
log date: 2022-03-18 07:35:01

––––––––––––––––––––––––––––––––––––––––
Analyzed: Luca Fanfoni / 24 Capricci Plus One
––––––––––––––––––––––––––––––––––––––––

DR Peak RMS Duration Track
––––––––––––––––––––––––––––––––––––––––
DR15 -5.27 dB -25.25 dB 3:30 01-Capriccio No. 1 in D Major
DR16 -0.10 dB -20.73 dB 4:44 02-Capriccio No. 2 in D Major
DR14 -5.21 dB -23.78 dB 3:35 03-Capriccio No. 3 in C Major
DR15 -0.70 dB -21.55 dB 4:13 04-Capriccio No. 4 in C Major
DR14 -0.48 dB -19.79 dB 3:52 05-Capriccio No. 5 in F Major
DR15 -0.29 dB -19.53 dB 3:01 06-Capriccio No. 6 in F Major
DR14 -4.77 dB -22.25 dB 3:18 07-Capriccio No. 7 in E Major
DR15 0.00 dB -19.04 dB 3:48 08-Capriccio No. 8 in E Major
DR15 -1.60 dB -20.31 dB 4:18 09-Capriccio No. 9 in C Major
DR14 -1.77 dB -20.44 dB 3:42 10-Capriccio No. 10 in C Major
DR14 -4.44 dB -22.23 dB 3:18 11-Capriccio No. 11 in G Major
DR16 -0.28 dB -19.30 dB 3:30 12-Capriccio No. 12 in G Minor
DR15 -2.87 dB -22.00 dB 3:44 13-Capriccio No. 13 in B-Flat Major
DR15 -0.16 dB -20.12 dB 3:56 14-Capriccio No. 14 in B-Flat Major
DR15 -1.80 dB -20.65 dB 2:28 15-Capriccio No. 15 in E Minor
DR14 -1.36 dB -19.74 dB 4:15 16-Capriccio No. 16 in E Minor
DR15 -0.02 dB -20.88 dB 4:02 17-Capriccio No. 17 in G Major
DR14 -0.61 dB -18.79 dB 3:18 18-Capriccio No. 18 in G Major
DR16 -3.38 dB -22.53 dB 2:58 19-Capriccio No. 19 in F Major
DR14 -2.54 dB -21.75 dB 3:23 20-Capriccio No. 20 in F Major
DR13 -1.84 dB -19.18 dB 2:41 21-Capriccio No. 21 in A Major
DR14 -1.60 dB -19.85 dB 2:49 22-Capriccio No. 22 in A Major
DR12 -1.64 dB -16.79 dB 3:17 23-Capriccio No. 23 in D Major "Il labirinto armonico"
DR13 -0.58 dB -18.88 dB 6:11 24-Capriccio No. 24 in D Major
DR15 -2.79 dB -22.17 dB 5:45 25-Capriccio in D Minor, Op. 6 No. 12 “Prova dell'intonazione”
––––––––––––––––––––––––––––––––––––––––

Number of tracks: 25
Official DR value: DR14

Samplerate: 48000 Hz
Channels: 2
Bits per sample: 24
Bitrate: 1479 kbps
Codec: FLAC
================================================================================