Luigi Palombi - Fake Bach - A Journey into Bach Arrangements (2021) [Official Digital Download 24/96]

Posted By: pyatak
Luigi Palombi - Fake Bach - A Journey into Bach Arrangements (2021) [Official Digital Download 24/96]

Luigi Palombi - Fake Bach - A Journey into Bach Arrangements (2021) [Official Digital Download 24/96]
FLAC (tracks) 24-bit/96 kHz | Front Cover | Time - 58:42 minutes | 1,01 GB
Classical | Label: Dynamic, Official Digital Download

The concept behind Fake Bach is to record a recital dedicated to Johann Sebastian Bach that focuses on piano transcriptions that are 'daring' and 'scandalous', providing a unique perspective on Bach's music. Encouraged by Franz Liszt and reflecting the progressive Bach Renaissance of the 1800s, these transcriptions date from 1850 to the First World War. The pianist-composer-virtuosos on this album researched the essence of Bach's genius and ended up expressing mostly themselves and their own personalities, dissolving the space between interpreter and their 'object of love' composer.

TRACKLIST

01. Luigi Palombi - Gounod: Méditation sur le 1er prélude de piano de J. S. Bach from the Prelude Bwv 846 of “das wohltemperierte Klavier I”
02. Luigi Palombi - Rummel: Cembalo obbligato “chi in amore ha nemica la sorte” from the Cantata “amore traditore” Bwv 203
03. Luigi Palombi - Saint-saëns: Largo from the Violin Sonata No. 3 Bwv 1005
04. Luigi Palombi - Godowsky: Presto from the Violin Sonata No. 1 Bwv 1001
05. Luigi Palombi - Bach: Concerto in D Minor Bwv 974 from Alessandro Marcello’s Oboe Concerto: (allegro)
06. Luigi Palombi - Bach: Concerto in D Minor Bwv 974 from Alessandro Marcello’s Oboe Concerto: Adagio
07. Luigi Palombi - Bach: Concerto in D Minor Bwv 974 from Alessandro Marcello’s Oboe Concerto: Presto
08. Luigi Palombi - Brahms: Presto - Studio No. 3 from the Violin Sonata No. 1 Bwv 1001
09. Luigi Palombi - Siloti: Prélude from the Prelude No. 5 Bwv 855a of the “klavierbüchlein für Wilhelm Friedemann Bach“
10. Luigi Palombi - Godowsky: Sarabande from the Partita No. 1 for solo violin Bwv 1002
11. Luigi Palombi - Saint-saëns: Bourrée from the Partita No. 1 for solo violin Bwv 1002
12. Luigi Palombi - Stradal: Concerto in A Minor from Bach’s organ transcription (Bwv 593) of a. Vivaldi’s Concerto Op. 3 No. 8 of L’estro Armonico: Allegro moderato e maestoso
13. Luigi Palombi - Stradal: Concerto in A Minor from Bach’s organ transcription (Bwv 593) of a. Vivaldi’s Concerto Op. 3 No. 8 of L’estro Armonico: Adagio
14. Luigi Palombi - Stradal: Concerto in A Minor from Bach’s organ transcription (Bwv 593) of a. Vivaldi’s Concerto Op. 3 No. 8 of L’estro Armonico: Allegro [nicht zu schnell]
15. Luigi Palombi - Martucci: Air from the Orchestral Suite No. 3 Bwv 1068

foobar2000 1.6.2 / Dynamic Range Meter 1.1.1
log date: 2021-01-20 17:47:22

––––––––––––––––––––––––––––––––––––––––
Analyzed: Luigi Palombi / Fake Bach - A Journey into Bach Arrangements
––––––––––––––––––––––––––––––––––––––––

DR Peak RMS Duration Track
––––––––––––––––––––––––––––––––––––––––
DR13 -4.52 dB -24.59 dB 5:05 01-Gounod: Méditation sur le 1er prélude de piano de J. S. Bach from the Prelude Bwv 846 of “das wohltemperierte Klavier I”
DR12 -2.69 dB -17.97 dB 2:10 02-Rummel: Cembalo obbligato “chi in amore ha nemica la sorte” from the Cantata “amore traditore” Bwv 203
DR15 -7.38 dB -29.00 dB 3:57 03-Saint-saëns: Largo from the Violin Sonata No. 3 Bwv 1005
DR12 -1.92 dB -17.55 dB 1:56 04-Godowsky: Presto from the Violin Sonata No. 1 Bwv 1001
DR12 -6.11 dB -21.40 dB 2:09 05-Bach: Concerto in D Minor Bwv 974 from Alessandro Marcello’s Oboe Concerto: (allegro)
DR12 -14.45 dB -30.80 dB 5:03 06-Bach: Concerto in D Minor Bwv 974 from Alessandro Marcello’s Oboe Concerto: Adagio
DR10 -8.30 dB -21.65 dB 1:40 07-Bach: Concerto in D Minor Bwv 974 from Alessandro Marcello’s Oboe Concerto: Presto
DR12 -5.46 dB -20.83 dB 1:57 08-Brahms: Presto - Studio No. 3 from the Violin Sonata No. 1 Bwv 1001
DR13 -12.32 dB -30.00 dB 2:03 09-Siloti: Prélude from the Prelude No. 5 Bwv 855a of the “klavierbüchlein für Wilhelm Friedemann Bach“
DR17 -1.88 dB -25.46 dB 5:19 10-Godowsky: Sarabande from the Partita No. 1 for solo violin Bwv 1002
DR13 -0.56 dB -17.95 dB 1:48 11-Saint-saëns: Bourrée from the Partita No. 1 for solo violin Bwv 1002
DR13 -0.31 dB -15.88 dB 6:30 12-Stradal: Concerto in A Minor from Bach’s organ transcription (Bwv 593) of a. Vivaldi’s Concerto Op. 3 No. 8 of L’estro Armonico: Allegro moderato e maestoso
DR15 -6.24 dB -29.29 dB 7:36 13-Stradal: Concerto in A Minor from Bach’s organ transcription (Bwv 593) of a. Vivaldi’s Concerto Op. 3 No. 8 of L’estro Armonico: Adagio
DR12 -0.20 dB -15.08 dB 6:27 14-Stradal: Concerto in A Minor from Bach’s organ transcription (Bwv 593) of a. Vivaldi’s Concerto Op. 3 No. 8 of L’estro Armonico: Allegro [nicht zu schnell]
DR16 -5.78 dB -28.36 dB 5:04 15-Martucci: Air from the Orchestral Suite No. 3 Bwv 1068
––––––––––––––––––––––––––––––––––––––––

Number of tracks: 15
Official DR value: DR13

Samplerate: 96000 Hz
Channels: 2
Bits per sample: 24
Bitrate: 2356 kbps
Codec: FLAC
================================================================================



Thanks to the Original customer.