Tags
Language
Tags
January 2023
Su Mo Tu We Th Fr Sa
1 2 3 4 5 6 7
8 9 10 11 12 13 14
15 16 17 18 19 20 21
22 23 24 25 26 27 28
29 30 31 1 2 3 4

Lysander Piano Trio & Sarah Shafer - Mirrors- 21st Century American Piano Trios (2020) [Official Digital Download 24/96]

Posted By: pyatak
Lysander Piano Trio & Sarah Shafer - Mirrors- 21st Century American Piano Trios (2020) [Official Digital Download 24/96]

Lysander Piano Trio & Sarah Shafer - Mirrors- 21st Century American Piano Trios (2020) [Official Digital Download 24/96]
FLAC (tracks) 24-bit/96 kHz | Front Cover | Time - 70:44 minutes | 1,19 GB
Classical | Label: First Hand Records, Official Digital Download

Celebrating their 10th anniversary in 2020, Lysander Piano Trio present their FHR début album 'mirrors' album featuring première recordings of new American piano trios commissioned or premièred by the ensemble.

The works included on this album, with their richness of styles and origins, provide an exciting and optimistic glimpse into music being written for piano trio today. Of particular note is 'Love Sweet' written by Grammy Award winning composer Jennifer Higdon and featuring the brilliant soprano Sarah Shafer.

“An enterprising and finely realized collection of recent works for piano trio (all of them first recordings) Lysander Piano Trio, an ensemble now well established on the American recital circuit, which here gets to display its versatility and conviction in abundant measure.” (Arcana)

TRACKLIST

1. Lysander Piano Trio & Sarah Shafer - Cohen: Around the Cauldron: I. In Dusk
2. Lysander Piano Trio & Sarah Shafer - Cohen: Around the Cauldron: II. Pounce
3. Lysander Piano Trio & Sarah Shafer - Cohen: Around the Cauldron: III. Transmutation
4. Lysander Piano Trio & Sarah Shafer - Cohen: Around the Cauldron: IV. Boiling
5. Lysander Piano Trio & Sarah Shafer - Cohen: Around the Cauldron: V. Witches Waltz
6. Lysander Piano Trio & Sarah Shafer - Cohen: Around the Cauldron: VI. Newts' Lament
7. Lysander Piano Trio & Sarah Shafer - Cohen: Around the Cauldron: VII. Sacrifical
8. Lysander Piano Trio & Sarah Shafer - Moya: Ghostwritten Variations: Var. 1, Doctor Fautus
9. Lysander Piano Trio & Sarah Shafer - Moya: Ghostwritten Variations: Var. 2, Cloud Atlas
10. Lysander Piano Trio & Sarah Shafer - Moya: Ghostwritten Variations: Var. 3, Orfeo
11. Lysander Piano Trio & Sarah Shafer - Moya: Ghostwritten Variations: Var. 4, The Memory of Whiteness
12. Lysander Piano Trio & Sarah Shafer - Higdon: Love Sweet: I. Apology
13. Lysander Piano Trio & Sarah Shafer - Higdon: Love Sweet: II. The Giver of Stars
14. Lysander Piano Trio & Sarah Shafer - Higdon: Love Sweet: III. Absence
15. Lysander Piano Trio & Sarah Shafer - Higdon: Love Sweet: IV. A Gift
16. Lysander Piano Trio & Sarah Shafer - Higdon: Love Sweet: V. A Fixed Idea
17. Lysander Piano Trio & Sarah Shafer - Belimova: Titania and Her Suite
18. Lysander Piano Trio & Sarah Shafer - Cooper: An den Wassern zu Babel
19. Lysander Piano Trio & Sarah Shafer - Ciupiński: The Black Mirror

foobar2000 1.6.2 / Dynamic Range Meter 1.1.1
log date: 2020-12-05 20:53:26

––––––––––––––––––––––––––––––––––––––––
Analyzed: Lysander Piano Trio & Sarah Shafer / Mirrors: 21st Century American Piano Trios
––––––––––––––––––––––––––––––––––––––––

DR Peak RMS Duration Track
––––––––––––––––––––––––––––––––––––––––
DR12 -0.49 dB -16.88 dB 1:24 01-Cohen: Around the Cauldron: I. In Dusk
DR11 -0.81 dB -14.82 dB 3:14 02-Cohen: Around the Cauldron: II. Pounce
DR12 -1.94 dB -24.09 dB 1:27 03-Cohen: Around the Cauldron: III. Transmutation
DR12 -0.78 dB -18.02 dB 1:05 04-Cohen: Around the Cauldron: IV. Boiling
DR12 -0.81 dB -16.63 dB 1:52 05-Cohen: Around the Cauldron: V. Witches Waltz
DR11 -0.75 dB -16.19 dB 0:46 06-Cohen: Around the Cauldron: VI. Newts' Lament
DR12 -0.81 dB -16.73 dB 3:44 07-Cohen: Around the Cauldron: VII. Sacrifical
DR12 -1.41 dB -19.27 dB 3:20 08-Moya: Ghostwritten Variations: Var. 1, Doctor Fautus
DR13 -0.81 dB -17.20 dB 1:55 09-Moya: Ghostwritten Variations: Var. 2, Cloud Atlas
DR14 -0.82 dB -20.49 dB 2:23 10-Moya: Ghostwritten Variations: Var. 3, Orfeo
DR15 -1.54 dB -23.18 dB 3:41 11-Moya: Ghostwritten Variations: Var. 4, The Memory of Whiteness
DR12 -1.37 dB -19.47 dB 2:35 12-Higdon: Love Sweet: I. Apology
DR13 -0.67 dB -20.37 dB 3:48 13-Higdon: Love Sweet: II. The Giver of Stars
DR10 -0.81 dB -17.29 dB 1:56 14-Higdon: Love Sweet: III. Absence
DR13 -3.40 dB -21.56 dB 3:18 15-Higdon: Love Sweet: IV. A Gift
DR13 -0.81 dB -19.74 dB 3:51 16-Higdon: Love Sweet: V. A Fixed Idea
DR14 -0.81 dB -20.44 dB 2:11 17-Belimova: Titania and Her Suite
DR13 -0.84 dB -18.70 dB 15:16 18-Cooper: An den Wassern zu Babel
DR13 -0.81 dB -18.66 dB 13:40 19-Ciupiński: The Black Mirror
––––––––––––––––––––––––––––––––––––––––

Number of tracks: 19
Official DR value: DR13

Samplerate: 96000 Hz
Channels: 2
Bits per sample: 24
Bitrate: 2223 kbps
Codec: FLAC
================================================================================



Thanks to the Original customer.