Magdalena Kožená - Il giardino dei sospiri (2019) [Official Digital Download 24/96]

Posted By: SERTiL
Magdalena Kožená - Il giardino dei sospiri (2019) [Official Digital Download 24/96]

Magdalena Kožená - Il giardino dei sospiri (2019)
FLAC (tracks) 24-bit/96 kHz | Time - 87:25 minutes | 1.50 GB
Studio Master, Official Digital Download | Artwork: Digital Booklet

On her first PENTATONE album, Czech star mezzo-soprano Magdalena Kožená returns to the baroque repertoire that launched her early career. Il giardino dei sospiri is a collection of scenes from secular cantatas on tragic love, ranging from Handel’s Qual ti riveggio to new editions of works by Leo (Angelica e Medoro), Marcello (Arianna abbandonata) and Gasparini (Atalia). These vocal works are connected through instrumental pieces by Handel (sinfonia of Agrippina), Vinci (sinfonia from Maria dolorata) and Sarro. Initially conceived as a scenic project, Il giardino dei sospiri offers a richly-faceted and profoundly moving aural drama. Kožená interprets the tragic heroines of these love stories with fervour, accompanied by Václav Luks and Collegium 1704.

Tracklist:
01. Arianna abbandonata, S. 98: No. 1a, Sinfonia. Prestissimo
02. Arianna abbandonata, S. 98: No. 1b, Sinfonia. Adagio assai
03. Arianna abbandonata, S. 98: No. 1c, Sinfonia. Presto
04. Arianna abbandonata, S. 98: No. 2, Dove, misera, dove
05. Arianna abbandonata, S. 98: No. 3, Come mai puoi
06. Arianna abbandonata, S. 98: No. 4, Se fia che pensi, o caro
07. Arianna abbandonata, S. 98: No. 5, Che dolce foco in petto
08. Maria dolorata: No. 1a, Sinfonia. Allegro
09. by Collegium 1704
10. Maria dolorata: No. 1c, Sinfonia. Minuet
11. Atalia: Ombre, cure sospetti
12. Didone abbandonata, introduzione: Allegro
13. by Collegium 1704
14. Didone abbandonata, introduzione: Minuetto
15. Or ch'è dal sol difesa: Or ch'è dal sol difesa
16. Or ch'è dal sol difesa: Siedi, siedi ben mio
17. Or ch'è dal sol difesa: Che detto avranno mai
18. Agrippina, HWV 6: Overture
19. Qual ti riveggio, oh Dio, HWV 150: Qual ti riveggio, oh Dio
20. Qual ti riveggio, oh Dio, HWV 150: Empio mare, onde crudeli
21. Qual ti riveggio, oh Dio, HWV 150: Amor, che ascoso ne’ suoi vaghi lumi
22. Qual ti riveggio, oh Dio, HWV 150: Se la morte non vorrà
23. Qual ti riveggio, oh Dio, HWV 150: Questi dalla mia fronte
24. Qual ti riveggio, oh Dio, HWV 150: Si muora, si muora
25. Qual ti riveggio, oh Dio, HWV 150: Ecco, gelide labbra

Personnel:
Magdalena Kozena, soprano
Collegium 1704
Vaclav Luks, conductor

foobar2000 1.3.7 / Dynamic Range Meter 1.1.1
log date: 2019-05-15 19:46:51

––––––––––––––––––––––––––––––––––––––––
Analyzed: Collegium 1704 / Il giardino dei sospiri (1-10)
Magdalena Kozená / Il giardino dei sospiri (11-25)
––––––––––––––––––––––––––––––––––––––––

DR Peak RMS Duration Track
––––––––––––––––––––––––––––––––––––––––
DR13 -9.47 dB -26.04 dB 2:49 01-Arianna abbandonata, S. 98: No. 1a, Sinfonia. Prestissimo
DR12 -10.43 dB -30.59 dB 2:07 02-Arianna abbandonata, S. 98: No. 1b, Sinfonia. Adagio assai
DR13 -10.62 dB -27.64 dB 0:50 03-Arianna abbandonata, S. 98: No. 1c, Sinfonia. Presto
DR12 -9.61 dB -24.97 dB 2:10 08-Maria dolorata: No. 1a, Sinfonia. Allegro
DR12 -12.95 dB -28.72 dB 0:25 09-by Collegium 1704
DR11 -10.23 dB -26.63 dB 2:06 10-Maria dolorata: No. 1c, Sinfonia. Minuet
DR12 -7.48 dB -22.96 dB 1:38 12-Didone abbandonata, introduzione: Allegro
DR9 -9.83 dB -25.91 dB 0:24 13-by Collegium 1704
DR12 -9.51 dB -25.97 dB 1:41 14-Didone abbandonata, introduzione: Minuetto
DR13 -6.64 dB -23.55 dB 3:35 18-Agrippina, HWV 6: Overture
DR15 -1.13 dB -22.21 dB 2:37 04-Arianna abbandonata, S. 98: No. 2, Dove, misera, dove
DR18 -0.84 dB -24.25 dB 11:01 05-Arianna abbandonata, S. 98: No. 3, Come mai puoi
DR16 -4.63 dB -26.53 dB 1:10 06-Arianna abbandonata, S. 98: No. 4, Se fia che pensi, o caro
DR15 -4.58 dB -24.49 dB 5:57 07-Arianna abbandonata, S. 98: No. 5, Che dolce foco in petto
DR15 -3.09 dB -22.46 dB 5:09 11-Atalia: Ombre, cure sospetti
DR15 -2.90 dB -22.91 dB 7:45 15-Or ch'è dal sol difesa: Or ch'è dal sol difesa
DR15 -5.77 dB -26.93 dB 2:34 16-Or ch'è dal sol difesa: Siedi, siedi ben mio
DR16 -1.66 dB -23.10 dB 5:20 17-Or ch'è dal sol difesa: Che detto avranno mai
DR13 -0.46 dB -22.51 dB 0:40 19-Qual ti riveggio, oh Dio, HWV 150: Qual ti riveggio, oh Dio
DR14 -1.26 dB -22.11 dB 7:10 20-Qual ti riveggio, oh Dio, HWV 150: Empio mare, onde crudeli
DR13 -2.95 dB -22.66 dB 0:44 21-Qual ti riveggio, oh Dio, HWV 150: Amor, che ascoso ne’ suoi vaghi lumi
DR16 -2.48 dB -22.91 dB 6:56 22-Qual ti riveggio, oh Dio, HWV 150: Se la morte non vorrà
DR14 -4.13 dB -26.64 dB 0:57 23-Qual ti riveggio, oh Dio, HWV 150: Questi dalla mia fronte
DR15 -2.54 dB -24.83 dB 8:40 24-Qual ti riveggio, oh Dio, HWV 150: Si muora, si muora
DR14 -3.58 dB -24.93 dB 1:03 25-Qual ti riveggio, oh Dio, HWV 150: Ecco, gelide labbra
––––––––––––––––––––––––––––––––––––––––

Number of tracks: 25
Official DR value: DR14

Samplerate: 96000 Hz
Channels: 2
Bits per sample: 24
Bitrate: 2354 kbps
Codec: FLAC
================================================================================


Thanks to the Original customer.