Philadelphia Orchestra, Yannick Nézet-Séguin - Mahler: Symphony No. 8 (2020) [Official Digital Download 24/96]

Posted By: SERTiL
Philadelphia Orchestra, Yannick Nézet-Séguin - Mahler: Symphony No. 8 (2020) [Official Digital Download 24/96]

Philadelphia Orchestra, Yannick Nézet-Séguin - Mahler: Symphony No. 8 (2020)
FLAC (tracks) 24-bit/96 kHz | Time - 83:03 minutes | 1.45 GB
Studio Master, Official Digital Download | Artwork: Digital Booklet

Yannick Nézet-Séguin’s new Mahler recording marks a return to the core symphonic repertoire with the Philadelphia Orchestra Gustav Mahler’s Eighth Symphony was billed as the “Symphony of a Thousand” exploring themes of redemption through the power of love.

The performances with the Philadelphia Orchestra under the baton of its music director Nézet-Séguin in March 2016 marked – almost to the day – the 100th anniversary of the glorious U.S. premiere by the very same orchestra in 1916, then conducted by Stokowski.

Tracklist:
1. Symphony No. 8 in E-Flat Major - "Symphony of a Thousand" / Pt. 1 : "Veni creator spiritus" (Live) (1:26)
2. Symphony No. 8 in E-Flat Major - "Symphony of a Thousand" / Pt. 1 : "Imple superna gratia" (Live) (4:26)
3. Symphony No. 8 in E-Flat Major - "Symphony of a Thousand" / Pt. 1 : "Infirma nostri corporis" (Live) (1:47)
4. Symphony No. 8 in E-Flat Major - "Symphony of a Thousand" / Pt. 1 : Tempo I (Allegro, etwas hastig) (Live) (1:25)
5. Symphony No. 8 in E-Flat Major - "Symphony of a Thousand" / Pt. 1 : "Infirma nostri corporis virtute firmans perpeti" (Live) (2:48)
6. Symphony No. 8 in E-Flat Major - "Symphony of a Thousand" / Pt. 1 : "Accende lumen sensibus" (Live) (5:22)
7. Symphony No. 8 in E-Flat Major - "Symphony of a Thousand" / Pt. 1 : "Qui Paraclitus diceris" (Live) (4:18)
8. Symphony No. 8 in E-Flat Major - "Symphony of a Thousand" / Pt. 1 : "Gloria sit Patri Domino" (Live) (1:53)
9. Symphony No. 8 in E-Flat Major - "Symphony of a Thousand" / Pt. 2 : Poco adagio (Live) (6:24)
10. Symphony No. 8 in E-Flat Major - "Symphony of a Thousand" / Pt. 2 : Più mosso (Allegro moderato) (Live) (3:48)
11. Symphony No. 8 in E-Flat Major - "Symphony of a Thousand" / Pt. 2 : "Waldung, sie schwankt heran" (Live) (4:32)
12. Symphony No. 8 in E-Flat Major - "Symphony of a Thousand" / Pt. 2 : "Ewiger Wonnebrand" (Live) (1:39)
13. Symphony No. 8 in E-Flat Major - "Symphony of a Thousand" / Pt. 2 : "Wie Felsenabgrund mir zu Füßen" (Live) (4:37)
14. Symphony No. 8 in E-Flat Major - "Symphony of a Thousand" / Pt. 2 : "Gerettet ist das edle Glied" (Live) (1:04)
15. Symphony No. 8 in E-Flat Major - "Symphony of a Thousand" / Pt. 2 : "Jene Rosen, aus den Händen" (Live) (2:10)
16. Symphony No. 8 in E-Flat Major - "Symphony of a Thousand" / Pt. 2 : "Uns bleibt ein Erdenrest" (Live) (1:47)
17. Symphony No. 8 in E-Flat Major - "Symphony of a Thousand" / Pt. 2 : "Ich spür' soeben" (Live) (0:35)
18. Symphony No. 8 in E-Flat Major - "Symphony of a Thousand" / Pt. 2 : "Hier ist die Aussicht frei" - "Freudig empfangen wir" (Live) (0:39)
19. Symphony No. 8 in E-Flat Major - "Symphony of a Thousand" / Pt. 2 : "Höchste Herrscherin der Welt" (Live) (2:42)
20. Symphony No. 8 in E-Flat Major - "Symphony of a Thousand" / Pt. 2 : "Jungfrau, rein im schönsten Sinne" (Live) (1:45)
21. Symphony No. 8 in E-Flat Major - "Symphony of a Thousand" / Pt. 2 : Äußerst langsam. Adagissimo (Live) (1:39)
22. Symphony No. 8 in E-Flat Major - "Symphony of a Thousand" / Pt. 2 : "Dir, der Unberührbaren" - "Du schwebst zu Höhen" (Live) (2:42)
23. Symphony No. 8 in E-Flat Major - "Symphony of a Thousand" / Pt. 2 : "Bei der Liebe, die den Füßen" (Live) (1:00)
24. Symphony No. 8 in E-Flat Major - "Symphony of a Thousand" / Pt. 2 : ''Bei dem Bronn, zu dem schon weiland" (Live) (1:27)
25. Symphony No. 8 in E-Flat Major - "Symphony of a Thousand" / Pt. 2 : "Bei dem hochgeweihten Orte" (Live) (1:05)
26. Symphony No. 8 in E-Flat Major - "Symphony of a Thousand" / Pt. 2 : "Die du großen Sünderinnen" (Live) (1:38)
27. Symphony No. 8 in E-Flat Major - "Symphony of a Thousand" / Pt. 2 : "Neige, neige, du Ohnegleiche" (Live) (0:48)
28. Symphony No. 8 in E-Flat Major - "Symphony of a Thousand" / Pt. 2 : "Er überwächst uns schon" (Live) (1:20)
29. Symphony No. 8 in E-Flat Major - "Symphony of a Thousand" / Pt. 2 : "Vom edlen Geisterchor umgeben" (Live) (2:15)
30. Symphony No. 8 in E-Flat Major - "Symphony of a Thousand" / Pt. 2 : "Komm! hebe dich zu höhern Sphären" (Live) (1:18)
31. Symphony No. 8 in E-Flat Major - "Symphony of a Thousand" / Pt. 2 : "Blicket auf zum Retterblick" (Live) (6:20)
32. Symphony No. 8 in E-Flat Major - "Symphony of a Thousand" / Pt. 2 : "Alles Vergängliche" (Live) (6:41)

foobar2000 1.3.7 / Dynamic Range Meter 1.1.1
log date: 2020-01-17 11:51:37

––––––––––––––––––––––––––––––––––––––––
Analyzed: Angela Meade / Mahler: Symphony No. 8 (1-9)
Anthony Dean Griffey / Mahler: Symphony No. 8 (10-13)
Elizabeth Bishop / Mahler: Symphony No. 8 (14-15)
Erin Wall / Mahler: Symphony No. 8 (16-18)
John Relyea / Mahler: Symphony No. 8 (19)
Lisette Oropesa / Mahler: Symphony No. 8 (20)
Markus Werba / Mahler: Symphony No. 8 (21)
Mihoko Fujimura / Mahler: Symphony No. 8 (22)
Philadelphia Orchestra / Mahler: Symphony No. 8 (23-32)
––––––––––––––––––––––––––––––––––––––––

DR Peak RMS Duration Track
––––––––––––––––––––––––––––––––––––––––
DR13 -5.15 dB -22.57 dB 4:26 02-"Imple superna gratia" (Live)
DR12 -6.82 dB -27.00 dB 1:47 03-"Infirma nostri corporis" (Live)
DR14 -9.50 dB -28.71 dB 2:48 05-"Infirma nostri corporis virtute firmans perpeti" (Live)
DR12 -0.40 dB -16.98 dB 5:22 06-"Accende lumen sensibus" (Live)
DR12 -2.67 dB -20.84 dB 4:18 07-"Qui Paraclitus diceris" (Live)
DR11 -0.63 dB -15.23 dB 1:53 08-"Gloria sit Patri Domino" (Live)
DR12 -9.75 dB -27.47 dB 1:00 23-"Bei der Liebe, die den Füßen" (Live)
DR12 -7.94 dB -25.91 dB 1:38 26-"Die du großen Sünderinnen" (Live)
DR12 -1.31 dB -17.62 dB 6:41 32-"Alles Vergängliche" (Live)
DR12 -5.85 dB -23.38 dB 0:39 18-"Hier ist die Aussicht frei" - "Freudig empfangen wir" (Live)
DR13 -10.60 dB -28.94 dB 2:42 19-"Höchste Herrscherin der Welt" (Live)
DR12 -7.00 dB -26.32 dB 1:45 20-"Jungfrau, rein im schönsten Sinne" (Live)
DR13 -4.44 dB -23.11 dB 6:20 31-"Blicket auf zum Retterblick" (Live)
DR13 -12.88 dB -31.64 dB 1:47 16-"Uns bleibt ein Erdenrest" (Live)
DR12 -6.24 dB -24.82 dB 1:27 24-''Bei dem Bronn, zu dem schon weiland" (Live)
DR13 -5.84 dB -25.81 dB 2:42 22-"Dir, der Unberührbaren" - "Du schwebst zu Höhen" (Live)
DR11 -5.11 dB -22.04 dB 0:48 27-"Neige, neige, du Ohnegleiche" (Live)
DR11 -5.47 dB -22.33 dB 2:15 29-"Vom edlen Geisterchor umgeben" (Live)
DR13 -6.45 dB -23.12 dB 4:37 13-"Wie Felsenabgrund mir zu Füßen" (Live)
DR11 -16.20 dB -33.40 dB 1:18 30-"Komm! hebe dich zu höhern Sphären" (Live)
DR12 -6.84 dB -24.72 dB 1:39 12-"Ewiger Wonnebrand" (Live)
DR13 -11.70 dB -30.30 dB 1:05 25-"Bei dem hochgeweihten Orte" (Live)
DR10 -2.53 dB -17.69 dB 1:26 01-"Veni creator spiritus" (Live)
DR13 -9.66 dB -28.83 dB 1:25 04-Tempo I (Allegro, etwas hastig) (Live)
DR12 -8.52 dB -27.33 dB 6:24 09-Poco adagio (Live)
DR11 -7.71 dB -23.00 dB 3:48 10-Più mosso (Allegro moderato) (Live)
DR13 -17.39 dB -37.75 dB 4:32 11-"Waldung, sie schwankt heran" (Live)
DR11 -2.87 dB -19.69 dB 1:04 14-"Gerettet ist das edle Glied" (Live)
DR11 -5.42 dB -22.90 dB 2:10 15-"Jene Rosen, aus den Händen" (Live)
DR12 -10.16 dB -27.00 dB 0:35 17-"Ich spür' soeben" (Live)
DR11 -22.59 dB -38.00 dB 1:39 21-Äußerst langsam. Adagissimo (Live)
DR12 -7.57 dB -23.37 dB 1:20 28-"Er überwächst uns schon" (Live)
––––––––––––––––––––––––––––––––––––––––

Number of tracks: 32
Official DR value: DR12

Samplerate: 96000 Hz
Channels: 2
Bits per sample: 24
Bitrate: 2564 kbps
Codec: FLAC
================================================================================


Thanks to the Original customer.