Marcin Swiatkiewicz - J.S. Bach - Goldberg Variations, BWV988 (2020) [Official Digital Download]

Posted By: pyatak
Marcin Swiatkiewicz - J.S. Bach - Goldberg Variations, BWV988 (2020) [Official Digital Download]

Marcin Swiatkiewicz - J.S. Bach - Goldberg Variations, BWV988 (2020) [Official Digital Download]
FLAC (tracks) 24-bit/48 kHz | Front Cover | Time - 01:21:04 minutes | 0,99 GB
Classical | Label: RUBICON, Official Digital Download

I decided to cultivate the tradition of recording Goldberg Variations. This 20th-century ritual resulted in hundreds or thousands of interpretations performed on various instruments and recorded on various labels. Believers collect recordings of this lengthy masterpiece. There are legends about the sleepless nights of the count and about the genius of an adolescent Gdańsk man, and the Orthodox spend creative hours of gray twilight seeking the final argument for the superiority of the First Record of the Canadian over the Second, or vice versa.

TRACKLIST

1. Marcin Swiatkiewicz - Goldberg Variations, BWV 988: Aria
2. Marcin Swiatkiewicz - Goldberg Variations, BWV 988: Variatio 1. a 1 Clav.
3. Marcin Swiatkiewicz - Goldberg Variations, BWV 988: Variatio 2. a 1 Clav.
4. Marcin Swiatkiewicz - Goldberg Variations, BWV 988: Variatio 3. Canone all'Unisono. a 1 Clav.
5. Marcin Swiatkiewicz - Goldberg Variations, BWV 988: Variatio 4. a 1 Clav.
6. Marcin Swiatkiewicz - Goldberg Variations, BWV 988: Variatio 5. a 1 o vero 2 Clav.
7. Marcin Swiatkiewicz - Goldberg Variations, BWV 988: Variatio 6. Canone alla Seconda. a 1 Clav.
8. Marcin Swiatkiewicz - Goldberg Variations, BWV 988: Variatio 7. a 1 o vero 2 Clav. al tempo di Giga
9. Marcin Swiatkiewicz - Goldberg Variations, BWV 988: Variatio 8. a 2 Clav.
10. Marcin Swiatkiewicz - Goldberg Variations, BWV 988: Variatio 9. Canone alla Terza. a 1 Clav.
11. Marcin Swiatkiewicz - Goldberg Variations, BWV 988: Variatio 10. Fughetta. a 1 Clav.
12. Marcin Swiatkiewicz - Goldberg Variations, BWV 988: Variatio 11. a 2 Clav.
13. Marcin Swiatkiewicz - Goldberg Variations, BWV 988: Variatio 12. a 1 Clav. Canone alla Quarta in moto contrario
14. Marcin Swiatkiewicz - Goldberg Variations, BWV 988: Variatio 13. a 2 Clav.
15. Marcin Swiatkiewicz - Goldberg Variations, BWV 988: Variatio 14. a 2 Clav.
16. Marcin Swiatkiewicz - Goldberg Variations, BWV 988: Variatio 15. Canone alla Quinta. a 1 Clav. Andante
17. Marcin Swiatkiewicz - Goldberg Variations, BWV 988: Variatio 16. Ouverture. a 1 Clav.
18. Marcin Swiatkiewicz - Goldberg Variations, BWV 988: Variatio 17. a 2 Clav.
19. Marcin Swiatkiewicz - Goldberg Variations, BWV 988: Variatio 18. Canone alla Sesta. a 1 Clav.
20. Marcin Swiatkiewicz - Goldberg Variations, BWV 988: Variatio 19. a 1 Clav.
21. Marcin Swiatkiewicz - Goldberg Variations, BWV 988: Variatio 20. a 2 Clav.
22. Marcin Swiatkiewicz - Goldberg Variations, BWV 988: Variatio 21. Canone alla Settima
23. Marcin Swiatkiewicz - Goldberg Variations, BWV 988: Variatio 22. a 1 Clav. alla breve
24. Marcin Swiatkiewicz - Goldberg Variations, BWV 988: Variatio 23. a 2 Clav.
25. Marcin Swiatkiewicz - Goldberg Variations, BWV 988: Variatio 24. Canone all'Ottava. a 1 Clav.
26. Marcin Swiatkiewicz - Goldberg Variations, BWV 988: Variatio 25. a 2 Clav. Adagio
27. Marcin Swiatkiewicz - Goldberg Variations, BWV 988: Variatio 26. a 2 Clav.
28. Marcin Swiatkiewicz - Goldberg Variations, BWV 988: Variatio 27. Canone alla Nona. a 2 Clav.
29. Marcin Swiatkiewicz - Goldberg Variations, BWV 988: Variatio 28. a 2 Clav.
30. Marcin Swiatkiewicz - Goldberg Variations, BWV 988: Variatio 29. a 1 o vero 2 Clav.
31. Marcin Swiatkiewicz - Goldberg Variations, BWV 988: Variatio 30. a 1 Clav. Quodlibet
32. Marcin Swiatkiewicz - Goldberg Variations, BWV 988: Aria da Capo

foobar2000 1.3.16 / Dynamic Range Meter 1.1.1
log date: 2020-06-30 00:16:20

––––––––––––––––––––––––––––––––––––––––
Analyzed: Marcin Swiatkiewicz / J.S. Bach: Goldberg Variations, BWV988
––––––––––––––––––––––––––––––––––––––––

DR Peak RMS Duration Track
––––––––––––––––––––––––––––––––––––––––
DR12 -7.36 dB -21.62 dB 4:24 01-Goldberg Variations, BWV 988: Aria
DR11 -1.72 dB -14.54 dB 2:15 02-Goldberg Variations, BWV 988: Variatio 1. a 1 Clav.
DR11 -8.43 dB -21.32 dB 1:49 03-Goldberg Variations, BWV 988: Variatio 2. a 1 Clav.
DR11 -6.57 dB -19.18 dB 2:23 04-Goldberg Variations, BWV 988: Variatio 3. Canone all'Unisono. a 1 Clav.
DR11 -4.60 dB -17.41 dB 1:03 05-Goldberg Variations, BWV 988: Variatio 4. a 1 Clav.
DR11 -6.48 dB -19.79 dB 1:53 06-Goldberg Variations, BWV 988: Variatio 5. a 1 o vero 2 Clav.
DR11 -3.71 dB -16.60 dB 1:00 07-Goldberg Variations, BWV 988: Variatio 6. Canone alla Seconda. a 1 Clav.
DR12 -2.57 dB -17.01 dB 1:41 08-Goldberg Variations, BWV 988: Variatio 7. a 1 o vero 2 Clav. al tempo di Giga
DR11 -7.37 dB -19.59 dB 2:09 09-Goldberg Variations, BWV 988: Variatio 8. a 2 Clav.
DR11 -2.29 dB -16.64 dB 2:03 10-Goldberg Variations, BWV 988: Variatio 9. Canone alla Terza. a 1 Clav.
DR11 -1.09 dB -14.58 dB 1:40 11-Goldberg Variations, BWV 988: Variatio 10. Fughetta. a 1 Clav.
DR11 -5.43 dB -18.37 dB 1:56 12-Goldberg Variations, BWV 988: Variatio 11. a 2 Clav.
DR12 -4.19 dB -17.77 dB 3:12 13-Goldberg Variations, BWV 988: Variatio 12. a 1 Clav. Canone alla Quarta in moto contrario
DR11 -6.38 dB -19.91 dB 5:31 14-Goldberg Variations, BWV 988: Variatio 13. a 2 Clav.
DR12 -3.48 dB -18.77 dB 2:12 15-Goldberg Variations, BWV 988: Variatio 14. a 2 Clav.
DR12 -8.08 dB -22.75 dB 4:08 16-Goldberg Variations, BWV 988: Variatio 15. Canone alla Quinta. a 1 Clav. Andante
DR11 -0.17 dB -13.45 dB 2:41 17-Goldberg Variations, BWV 988: Variatio 16. Ouverture. a 1 Clav.
DR11 -5.19 dB -18.32 dB 2:30 18-Goldberg Variations, BWV 988: Variatio 17. a 2 Clav.
DR12 -3.43 dB -17.24 dB 1:22 19-Goldberg Variations, BWV 988: Variatio 18. Canone alla Sesta. a 1 Clav.
DR11 -1.40 dB -14.54 dB 0:56 20-Goldberg Variations, BWV 988: Variatio 19. a 1 Clav.
DR11 -6.39 dB -19.34 dB 2:14 21-Goldberg Variations, BWV 988: Variatio 20. a 2 Clav.
DR11 -6.75 dB -19.51 dB 3:45 22-Goldberg Variations, BWV 988: Variatio 21. Canone alla Settima
DR12 -1.40 dB -17.23 dB 1:20 23-Goldberg Variations, BWV 988: Variatio 22. a 1 Clav. alla breve
DR12 -2.01 dB -16.61 dB 2:14 24-Goldberg Variations, BWV 988: Variatio 23. a 2 Clav.
DR11 -0.09 dB -13.35 dB 2:20 25-Goldberg Variations, BWV 988: Variatio 24. Canone all'Ottava. a 1 Clav.
DR12 -6.57 dB -22.00 dB 6:56 26-Goldberg Variations, BWV 988: Variatio 25. a 2 Clav. Adagio
DR12 -2.14 dB -17.41 dB 2:26 27-Goldberg Variations, BWV 988: Variatio 26. a 2 Clav.
DR11 -5.43 dB -18.45 dB 2:02 28-Goldberg Variations, BWV 988: Variatio 27. Canone alla Nona. a 2 Clav.
DR11 -3.13 dB -16.91 dB 2:31 29-Goldberg Variations, BWV 988: Variatio 28. a 2 Clav.
DR12 0.00 dB -13.01 dB 2:01 30-Goldberg Variations, BWV 988: Variatio 29. a 1 o vero 2 Clav.
DR12 -0.69 dB -14.51 dB 1:51 31-Goldberg Variations, BWV 988: Variatio 30. a 1 Clav. Quodlibet
DR12 -5.47 dB -20.84 dB 4:46 32-Goldberg Variations, BWV 988: Aria da Capo
––––––––––––––––––––––––––––––––––––––––

Number of tracks: 32
Official DR value: DR11

Samplerate: 48000 Hz
Channels: 2
Bits per sample: 24
Bitrate: 1645 kbps
Codec: FLAC
================================================================================



Thanks to the Original customer.